<svg baseProfile="tiny" xmlns="http://www.w3.org/2000/svg" width="455.75" height="154"><font horiz-adv-x="1000"><font-face font-family="Intro-Black-Caps" underline-position="-100" underline-thickness="50"/><glyph unicode="A" horiz-adv-x="700" d="M481 87l41-87h189v25L393 707h-84L-12 25V0h191l40 87m131 322l73-169H278z"/><glyph unicode="Æ" horiz-adv-x="827" d="M228 153h157V0h392v158H540v130h207v151H540v100h228v159H301L-10 27V0h175m225 544h2l-7-242H284z"/><glyph unicode="Ǽ" horiz-adv-x="827" d="M228 153h157V0h392v158H540v130h207v151H540v100h228v159H301L-10 27V0h175m225 544h2l-7-242H284m254 447l101 126v15l-157 56-82-181v-16z"/><glyph unicode="Á" horiz-adv-x="700" d="M481 87l41-87h189v25L393 707h-84L-12 25V0h191l40 87m131 322l73-169H278m141 519l101 126v15l-157 56-82-181v-16z"/><glyph unicode="Ă" horiz-adv-x="700" d="M481 87l41-87h189v25L393 707h-84L-12 25V0h191l40 87m131 322l73-169H278M137 931c5-244 427-248 427 0H420c-4-69-133-69-137 0z"/><glyph unicode="Â" horiz-adv-x="700" d="M481 87l41-87h189v25L393 707h-84L-12 25V0h191l40 87m131 322l73-169H278m302 519v16L436 931H265L120 775v-16h166l64 71 66-71z"/><glyph unicode="Ä" horiz-adv-x="700" d="M481 87l41-87h189v25L393 707h-84L-12 25V0h191l40 87m131 322l73-169H278m207 500c52 0 93 33 93 85s-41 86-93 86c-53 0-94-34-94-86s41-85 94-85m-272 0c52 0 94 33 94 85s-42 86-94 86-94-34-94-86 42-85 94-85z"/><glyph unicode="À" horiz-adv-x="700" d="M481 87l41-87h189v25L393 707h-84L-12 25V0h191l40 87m131 322l73-169H278m151 521v16l-82 181-157-56v-15l101-126z"/><glyph unicode="Ā" horiz-adv-x="700" d="M481 87l41-87h189v25L393 707h-84L-12 25V0h191l40 87m131 322l73-169H278m-94 522h332v135H184z"/><glyph unicode="Ą" horiz-adv-x="700" d="M350 409l73-169H278M481 87l39-83c-56-45-85-105-60-173 40-109 202-85 277-34L713-97c-29-21-97-55-121-7-22 36 6 91 58 104h61v25L393 707h-84L-12 25V0h191l40 87z"/><glyph unicode="Å" horiz-adv-x="700" d="M302 811c0 53 90 53 90 0 0-54-90-54-90 0m48-402l73-169H278M481 87l41-87h189v25L401 689c49 17 87 57 87 122 0 174-283 174-283 0 0-68 42-109 94-125L-12 25V0h191l40 87z"/><glyph unicode="Ǻ" horiz-adv-x="701" d="M309 734c0 45 85 45 85 0 0-44-85-44-85 0m44-325l71-169H279l70 169M482 87l41-87h189v25L424 642c35 17 61 48 61 93 0 145-269 145-269 0 0-47 26-77 63-94L-11 25V0h191l40 87m192 773l97 95v11l-152 43-79-137v-12z"/><glyph unicode="Ã" horiz-adv-x="700" d="M481 87l41-87h189v25L393 707h-84L-12 25V0h191l40 87m131 322l73-169H278m-40 523c21 53 76 21 111 5 87-42 172 11 196 112l-91 43c-16-52-63-23-94-10-101 47-174 3-213-106 29-13 63-31 91-44z"/><glyph unicode="B" horiz-adv-x="674" d="M606 488c0 130-91 215-221 215H76V4h337c144 0 222 93 222 213 0 64-30 121-87 150 35 28 58 78 58 121m-234 56c37 0 55-31 54-62-1-28-19-55-54-55H259v117m140-265c12 0 21-3 30-7 17-12 26-34 25-55-3-28-19-54-54-54H259v116z"/><glyph unicode="C" horiz-adv-x="760" d="M39 349C39 113 218-7 397-7c149 0 304 79 331 278H552c-19-76-79-111-155-111-107 0-175 89-175 190 0 116 69 192 175 192 75 0 128-28 153-100h176c-27 187-185 265-329 265-179 0-358-117-358-358z"/><glyph unicode="Ć" horiz-adv-x="760" d="M39 349C39 113 218-7 397-7c149 0 304 79 331 278H552c-19-76-79-111-155-111-107 0-175 89-175 190 0 116 69 192 175 192 75 0 128-28 153-100h176c-27 187-185 265-329 265-179 0-358-117-358-358m409 412l101 126v15l-157 56-82-181v-16z"/><glyph unicode="Č" horiz-adv-x="760" d="M39 349C39 113 218-7 397-7c149 0 304 79 331 278H552c-19-76-79-111-155-111-107 0-175 89-175 190 0 116 69 192 175 192 75 0 128-28 153-100h176c-27 187-185 265-329 265-179 0-358-117-358-358m138 584v-16l142-153h168l142 153v16H466l-63-70-64 70z"/><glyph unicode="Ç" horiz-adv-x="760" d="M39 349C39 136 184 18 343-3l-20-77c24 0 69-11 61-40-8-27-75-19-100-2l-10-92c77-45 222-50 251 44 16 52 2 107-67 118l13 52c123 21 236 105 257 270H552c-19-76-79-111-155-111-107 0-175 89-175 190 0 117 69 193 175 193 75 0 128-28 153-100h176c-27 187-185 265-329 265-179 0-358-117-358-358z"/><glyph unicode="Ĉ" horiz-adv-x="760" d="M39 349C39 113 218-7 397-7c149 0 304 79 331 278H552c-19-76-79-111-155-111-107 0-175 89-175 190 0 116 69 192 175 192 75 0 128-28 153-100h176c-27 187-185 265-329 265-179 0-358-117-358-358m582 411v16L477 932H306L161 776v-16h166l64 71 66-71z"/><glyph unicode="Ċ" horiz-adv-x="760" d="M39 349C39 113 218-7 397-7c149 0 304 79 331 278H552c-19-76-79-111-155-111-107 0-175 89-175 190 0 116 69 192 175 192 75 0 128-28 153-100h176c-27 187-185 265-329 265-179 0-358-117-358-358m358 410c56 0 99 35 99 91s-43 92-99 92c-55 0-99-36-99-92s44-91 99-91z"/><glyph unicode="D" horiz-adv-x="727" d="M76 699V0h267c232 0 348 177 345 353 0 172-117 346-345 346m-84-534v370h82c108 0 164-92 164-184 0-93-53-186-164-186z"/><glyph unicode="Ď" horiz-adv-x="727" d="M76 699V0h267c232 0 348 177 345 353 0 172-117 346-345 346m-84-534v370h82c108 0 164-92 164-184 0-93-53-186-164-186M95 925v-15l138-149h163l138 149v15H376l-61-67-63 67z"/><glyph unicode="Đ" horiz-adv-x="738" d="M13 274h74V0h267c232 0 348 177 345 353 0 172-117 346-345 346H87V416H13m257-251v109h105v142H270v119h82c108 0 164-92 164-184 0-93-53-186-164-186z"/><glyph unicode="E" horiz-adv-x="572" d="M512 700H75V0h446v167H258v114h234v160H258v100h254z"/><glyph unicode="É" horiz-adv-x="572" d="M512 700H75V0h446v167H258v114h234v160H258v100h254M358 752l101 126v15l-157 56-82-181v-16z"/><glyph unicode="Ĕ" horiz-adv-x="572" d="M512 700H75V0h446v167H258v114h234v160H258v100h254M87 930c5-240 420-244 420 0H366c-4-67-131-66-135 0z"/><glyph unicode="Ě" horiz-adv-x="572" d="M512 700H75V0h446v167H258v114h234v160H258v100h254M77 927v-16l139-150h165l140 150v16H361l-62-69-64 69z"/><glyph unicode="Ê" horiz-adv-x="572" d="M512 700H75V0h446v167H258v114h234v160H258v100h254m6 209v15L381 919H218L79 765v-15h159l61 70 63-70z"/><glyph unicode="Ë" horiz-adv-x="572" d="M512 700H75V0h446v167H258v114h234v160H258v100h254m-80 212c52 0 93 33 93 85s-41 86-93 86c-53 0-94-34-94-86s41-85 94-85m-272 0c52 0 94 33 94 85s-42 86-94 86-94-34-94-86 42-85 94-85z"/><glyph unicode="Ė" horiz-adv-x="572" d="M512 700H75V0h446v167H258v114h234v160H258v100h254M296 748c56 0 99 35 99 91s-43 92-99 92c-55 0-99-36-99-92s44-91 99-91z"/><glyph unicode="È" horiz-adv-x="572" d="M512 700H75V0h446v167H258v114h234v160H258v100h254M390 750v16l-82 181-157-56v-15l101-126z"/><glyph unicode="Ē" horiz-adv-x="572" d="M512 700H75V0h446v167H258v114h234v160H258v100h254M132 763h332v135H132z"/><glyph unicode="Ŋ" horiz-adv-x="755" d="M440-191c147-27 240 10 240 192v699H497V358L132 703H75V0h183v361L529 93V3c0-67-18-77-84-72z"/><glyph unicode="Ę" horiz-adv-x="572" d="M512 700H75V0h236c-43-37-71-91-55-151 32-133 202-102 282-49L514-94c-29-21-105-58-129-10-19 35 3 80 40 104h96v167H258v114h234v160H258v100h254z"/><glyph unicode="Ð" horiz-adv-x="738" d="M13 273h74V0h267c232 0 348 177 345 353 0 172-117 346-345 346H87V416H13m257-251v108h105v143H270v119h82c108 0 164-92 164-184 0-93-53-186-164-186z"/><glyph unicode="€" horiz-adv-x="655" d="M41 326v-81h75C152 78 279-8 455-8c57 0 114 12 166 37l-60 148c-28-19-62-28-101-28-81 0-132 37-159 96h118l27 81H283c-3 19-2 38 1 58h182l26 80H309c31 56 85 91 152 91 32 0 60-6 85-17l53 142c-47 19-95 27-144 27-147 0-291-80-336-243H41v-80h66c-3-20-3-39-2-58z"/><glyph unicode="F" horiz-adv-x="546" d="M482 386H258v155h254v159H75V0h183v226h224z"/><glyph unicode="G" horiz-adv-x="766" d="M38 349C38 110 220-9 398-9c130 0 262 56 313 203 23 68 24 135 19 203H400V243h149c-33-67-79-85-151-85-107 0-175 75-175 192 0 106 62 195 175 195 68 0 112-21 143-77h178c-37 170-182 241-321 241-178 0-360-120-360-360z"/><glyph unicode="Ğ" horiz-adv-x="766" d="M38 349C38 110 220-9 398-9c130 0 262 56 313 203 23 68 24 135 19 203H400V243h149c-33-67-79-85-151-85-107 0-175 75-175 192 0 106 62 195 175 195 68 0 112-21 143-77h178c-37 170-182 241-321 241-178 0-360-120-360-360m134 600c5-250 437-255 437 0H462c-4-71-137-70-141 0z"/><glyph unicode="Ĝ" horiz-adv-x="766" d="M38 349C38 110 220-9 398-9c130 0 262 56 313 203 23 68 24 135 19 203H400V243h149c-33-67-79-85-151-85-107 0-175 75-175 192 0 106 62 195 175 195 68 0 112-21 143-77h178c-37 170-182 241-321 241-178 0-360-120-360-360m582 409v16L476 930H305L160 774v-16h166l64 71 66-71z"/><glyph unicode="Ģ" horiz-adv-x="766" d="M499-136c0 51-39 82-88 82s-88-31-88-82c0-40 27-68 63-79l-20-64h89l38 112c4 11 6 18 6 31M38 349C38 110 220-9 398-9c130 0 262 56 313 203 23 68 24 135 19 203H400V243h149c-33-67-79-85-151-85-107 0-175 75-175 192 0 106 62 195 175 195 68 0 112-21 143-77h178c-37 170-182 241-321 241-178 0-360-120-360-360z"/><glyph unicode="Ġ" horiz-adv-x="766" d="M38 349C38 110 220-9 398-9c130 0 262 56 313 203 23 68 24 135 19 203H400V243h149c-33-67-79-85-151-85-107 0-175 75-175 192 0 106 62 195 175 195 68 0 112-21 143-77h178c-37 170-182 241-321 241-178 0-360-120-360-360m358 414c59 0 102 33 102 88 0 53-43 89-102 89-56 0-102-36-102-89 0-55 46-88 102-88z"/><glyph unicode="H" horiz-adv-x="733" d="M658 0v700H475V447H258v253H75V0h183v280h217V0z"/><glyph unicode="Ħ" horiz-adv-x="743" d="M24 507h56V0h183v264h217V0h183v507h58v121h-58v72H480v-72H263v72H80v-72H24m239-197v76h217v-76z"/><glyph unicode="Ĥ" horiz-adv-x="733" d="M658 0v700H475V447H258v253H75V0h183v280h217V0m118 755v16L449 927H278L133 771v-16h166l64 71 66-71z"/><glyph unicode="I" horiz-adv-x="457" d="M320 148v404h81v148H56V552h81V148H48V0h361v148z"/><glyph unicode="Ĳ" horiz-adv-x="1084" d="M320 148v404h81v148H56V552h81V148H48V0h361v148m606 552H729V543h103V234c0-56-36-82-88-82-53 0-94 26-94 82v88H480v-91C480 78 599-10 745-10c144 0 270 88 270 241z"/><glyph unicode="Í" horiz-adv-x="457" d="M320 148v404h81v148H56V552h81V148H48V0h361v148M281 753l101 126v15l-157 56-82-181v-16z"/><glyph unicode="Ĭ" horiz-adv-x="457" d="M320 148v404h81v148H56V552h81V148H48V0h361v148M23 943c3-248 411-252 413 0H297c-4-69-130-69-134 0z"/><glyph unicode="Î" horiz-adv-x="457" d="M320 148v404h81v148H56V552h81V148H48V0h361v148m41 610v15L312 925H148L10 773v-15h158l62 69 63-69z"/><glyph unicode="Ï" horiz-adv-x="457" d="M320 148v404h81v148H56V552h81V148H48V0h361v148m-42 605c52 0 93 33 93 85s-41 86-93 86c-53 0-94-34-94-86s41-85 94-85m-272 0c52 0 94 33 94 85s-42 86-94 86-94-34-94-86 42-85 94-85z"/><glyph unicode="İ" horiz-adv-x="457" d="M320 148v404h81v148H56V552h81V148H48V0h361v148M228 753c60 0 107 35 107 92 0 56-47 93-107 93s-108-37-108-93c0-57 48-92 108-92z"/><glyph unicode="Ì" horiz-adv-x="457" d="M320 148v404h81v148H56V552h81V148H48V0h361v148m-97 603v16l-82 181-157-56v-15l101-126z"/><glyph unicode="Ī" horiz-adv-x="457" d="M320 148v404h81v148H56V552h81V148H48V0h361v148M63 767h332v135H63z"/><glyph unicode="Į" horiz-adv-x="457" d="M320 148v404h81v148H56V552h81V148H48V0h134c-43-36-69-83-53-143 32-132 201-113 280-57L385-94c-29-21-105-58-129-10-19 35 3 80 40 104h113v148z"/><glyph unicode="Ĩ" horiz-adv-x="457" d="M320 148v404h81v148H56V552h81V148H48V0h361v148M120 771c21 53 76 21 111 5 87-42 172 11 196 112l-91 43c-16-52-63-23-94-10-101 47-174 3-213-106 29-13 63-31 91-44z"/><glyph unicode="J" horiz-adv-x="627" d="M558 700H272V543h103V234c0-56-36-82-88-82-53 0-94 26-94 82v88H23v-91C23 78 142-10 288-10c144 0 270 88 270 241z"/><glyph unicode="Ĵ" horiz-adv-x="627" d="M558 700H272V543h103V234c0-56-36-82-88-82-53 0-94 26-94 82v88H23v-91C23 78 142-10 288-10c144 0 270 88 270 241m57 527v16L479 932H318L182 774v-16h156l61 72 62-72z"/><glyph unicode="K" horiz-adv-x="723" d="M498 0h207v27c-68 104-133 209-200 313 39 43 63 102 86 186 11 43 41 53 85 50v123c-164 34-232-35-253-120-20-84-31-126-63-142-25-13-73-11-102-11v274H75V0h183v267c25 0 66 0 87 3z"/><glyph unicode="Ķ" horiz-adv-x="723" d="M470-124c0 51-39 82-88 82s-88-31-88-82c0-40 27-68 63-79l-25-75h89l43 123c4 11 6 18 6 31M498 0h207v27c-68 104-133 209-200 313 39 43 63 102 86 186 11 43 41 53 85 50v123c-164 34-232-35-253-120-20-84-31-126-63-142-25-13-73-11-102-11v274H75V0h183v267c25 0 66 0 87 3z"/><glyph unicode="L" horiz-adv-x="528" d="M258 700H75V0h436v164H258z"/><glyph unicode="Ĺ" horiz-adv-x="528" d="M258 700H75V0h436v164H258m-33 588l101 126v15l-157 56-82-181v-16z"/><glyph unicode="Ľ" horiz-adv-x="538" d="M258 700H75V0h436v164H258m258 451c0 53-41 88-93 88-55 0-95-35-95-88 0-44 28-75 67-84l-25-87h95l44 137c5 12 7 19 7 34z"/><glyph unicode="Ļ" horiz-adv-x="528" d="M384-124c0 51-39 82-88 82s-88-31-88-82c0-40 27-68 63-79l-25-75h89l43 123c4 11 6 18 6 31M258 700H75V0h436v164H258z"/><glyph unicode="Ŀ" horiz-adv-x="531" d="M258 700H75V0h436v164H258m154 123c52 0 92 36 92 92s-40 92-92 92c-51 0-92-36-92-92s41-92 92-92z"/><glyph unicode="Ł" horiz-adv-x="536" d="M266 700H83V388l-65-17V225l65 17V0h436v164H266v128l94 26v146l-94-26z"/><glyph unicode="M" horiz-adv-x="835" d="M418 399L140 702H75V0h183v323l149-156h21l149 156V0h183v702h-65z"/><glyph unicode="N" horiz-adv-x="755" d="M626-2h54v702H497V358L132 703H75V0h183v361z"/><glyph unicode="Ń" horiz-adv-x="755" d="M626-2h54v702H497V358L132 703H75V0h183v361m149 385l101 126v15l-157 56-82-181v-16z"/><glyph unicode="Ň" horiz-adv-x="755" d="M626-2h54v702H497V358L132 703H75V0h183v361M134 919v-16l144-156h171l145 156v16H428l-64-71-66 71z"/><glyph unicode="Ņ" horiz-adv-x="755" d="M513-124c0 51-39 82-88 82s-88-31-88-82c0-40 27-68 63-79l-25-75h89l43 123c4 11 6 18 6 31M626-2h54v702H497V358L132 703H75V0h183v361z"/><glyph unicode="Ñ" horiz-adv-x="755" d="M626-2h54v702H497V358L132 703H75V0h183v361m-2 395c21 53 76 21 111 5 87-42 172 11 196 112l-91 43c-16-52-63-23-94-10-101 47-174 3-213-106 29-13 63-31 91-44z"/><glyph unicode="O" horiz-adv-x="794" d="M756 350c0 242-178 364-357 364-182 0-361-122-361-364C38 107 211-13 396-13c212 0 360 149 360 363m-535 0c0 128 87 190 178 190 87 0 174-65 174-190s-89-190-176-190c-90 0-176 65-176 190z"/><glyph unicode="Œ" horiz-adv-x="922" d="M872 0v158H617v130h225v151H617v100h246v159H488c-31 8-62 11-93 11-185 3-356-119-356-361C39 109 201-11 385-11c33 0 66 3 99 11M216 348c0 113 79 202 183 202 21-1 41-4 64-12V151c-21-8-42-11-62-11-107 0-185 95-185 208z"/><glyph unicode="Ó" horiz-adv-x="794" d="M756 350c0 242-178 364-357 364-182 0-361-122-361-364C38 107 211-13 396-13c212 0 360 149 360 363m-535 0c0 128 87 190 178 190 87 0 174-65 174-190s-89-190-176-190c-90 0-176 65-176 190m230 414l101 126v15l-157 56-82-181v-16z"/><glyph unicode="Ŏ" horiz-adv-x="794" d="M756 350c0 242-178 364-357 364-182 0-361-122-361-364C38 107 211-13 396-13c212 0 360 149 360 363m-535 0c0 128 87 190 178 190 87 0 174-65 174-190s-89-190-176-190c-90 0-176 65-176 190m-45 605c5-250 437-255 437 0H466c-4-71-137-70-141 0z"/><glyph unicode="Ô" horiz-adv-x="794" d="M756 350c0 242-178 364-357 364-182 0-361-122-361-364C38 107 211-13 396-13c212 0 360 149 360 363m-535 0c0 128 87 190 178 190 87 0 174-65 174-190s-89-190-176-190c-90 0-176 65-176 190m405 413v16L482 935H311L166 779v-16h166l64 71 66-71z"/><glyph unicode="Ö" horiz-adv-x="794" d="M756 350c0 242-178 364-357 364-182 0-361-122-361-364C38 107 211-13 396-13c212 0 360 149 360 363m-535 0c0 128 87 190 178 190 87 0 174-65 174-190s-89-190-176-190c-90 0-176 65-176 190m312 411c52 0 93 33 93 85s-41 86-93 86c-53 0-94-34-94-86s41-85 94-85m-272 0c52 0 94 33 94 85s-42 86-94 86-94-34-94-86 42-85 94-85z"/><glyph unicode="Ò" horiz-adv-x="794" d="M756 350c0 242-178 364-357 364-182 0-361-122-361-364C38 107 211-13 396-13c212 0 360 149 360 363m-535 0c0 128 87 190 178 190 87 0 174-65 174-190s-89-190-176-190c-90 0-176 65-176 190m254 413v16l-82 181-157-56v-15l101-126z"/><glyph unicode="Ő" horiz-adv-x="794" d="M340 766l85 151v14l-152 33-66-183v-15m363 0l85 129v15l-151 40-66-169v-15m318-416c0 242-178 364-357 364-182 0-361-122-361-364C38 107 211-13 396-13c212 0 360 149 360 363m-535 0c0 128 87 190 178 190 87 0 174-65 174-190s-89-190-176-190c-90 0-176 65-176 190z"/><glyph unicode="Ō" horiz-adv-x="794" d="M756 350c0 242-178 364-357 364-182 0-361-122-361-364C38 107 211-13 396-13c212 0 360 149 360 363m-535 0c0 128 87 190 178 190 87 0 174-65 174-190s-89-190-176-190c-90 0-176 65-176 190m14 422h332v135H235z"/><glyph unicode="Ø" horiz-adv-x="791" d="M728 743v17H557l-39-67c-40 15-80 19-121 19-180 0-359-119-359-362 0-120 43-210 111-270L74-45v-19c56-1 114 0 170 0l41 68c35-11 73-16 110-16 180 0 358 119 358 362 0 117-40 204-103 264M545 455c15-27 25-62 25-105 0-124-88-189-173-189-11 0-18 1-27 2m-117 73c-20 31-32 67-32 114 0 125 88 189 175 189 13 0 25-1 37-3z"/><glyph unicode="Ǿ" horiz-adv-x="791" d="M650 614l78 129v17H557l-39-67c-40 15-80 19-121 19-180 0-359-119-359-362 0-120 43-210 111-270L74-45v-19c56-1 114 0 170 0l41 68c35-11 73-16 110-16 180 0 358 119 358 362 0 117-40 204-103 264M370 163l175 292c15-27 25-62 25-105 0-124-88-189-173-189-11 0-18 1-27 2m63 373L253 236c-20 31-32 67-32 114 0 125 88 189 175 189 13 0 25-1 37-3m23 235l101 126v15l-157 56-82-181v-16z"/><glyph unicode="Õ" horiz-adv-x="794" d="M756 350c0 242-178 364-357 364-182 0-361-122-361-364C38 107 211-13 396-13c212 0 360 149 360 363m-535 0c0 128 87 190 178 190 87 0 174-65 174-190s-89-190-176-190c-90 0-176 65-176 190m67 427c21 53 76 21 111 5 87-42 172 11 196 112l-91 43c-16-52-63-23-94-10-101 47-174 3-213-106 29-13 63-31 91-44z"/><glyph unicode="P" horiz-adv-x="658" d="M259 1v181h126c166 0 251 128 251 256 3 132-83 263-251 263-104 1-205 0-309 0V1m180 340v201h129c50 0 76-49 76-99 0-51-28-102-76-102z"/><glyph unicode="Q" horiz-adv-x="795" d="M774 19l-73 125c35 55 54 123 54 206 0 242-179 364-358 364-214 0-359-145-359-364C38 125 206-7 389-10c65-1 132 15 193 48l27-46h165M221 350c0 125 86 190 175 190 88 0 176-62 176-190 0-127-88-190-175-190-90 0-176 65-176 190z"/><glyph unicode="R" horiz-adv-x="696" d="M532 249c69 47 103 124 104 204 0 123-83 248-252 248-103 1-204 0-308 0V1h183v219h96L475 1h194v26M256 369v173h127c52 0 76-41 76-85s-25-88-76-88z"/><glyph unicode="Ŕ" horiz-adv-x="696" d="M532 249c69 47 103 124 104 204 0 123-83 248-252 248-103 1-204 0-308 0V1h183v219h96L475 1h194v26M256 369v173h127c52 0 76-41 76-85s-25-88-76-88m-8 387l101 126v15l-157 56-82-181v-16z"/><glyph unicode="Ř" horiz-adv-x="696" d="M532 249c69 47 103 124 104 204 0 123-83 248-252 248-103 1-204 0-308 0V1h183v219h96L475 1h194v26M256 369v173h127c52 0 76-41 76-85s-25-88-76-88M99 934v-16l144-156h171l145 156v16H393l-64-71-66 71z"/><glyph unicode="Ŗ" horiz-adv-x="695" d="M445-124c0 51-39 82-88 82s-88-31-88-82c0-40 27-68 63-79l-25-75h89l43 123c4 11 6 18 6 31m86 373c69 47 103 124 104 204 0 123-83 248-252 248-103 1-204 0-308 0V1h183v219h96L474 1h194v26M255 369v173h127c52 0 76-41 76-85s-25-88-76-88z"/><glyph unicode="S" horiz-adv-x="649" d="M40 215C37 58 179-16 327-16c143 0 286 77 286 224 0 170-130 205-279 218-67 7-107 18-107 65 0 53 54 64 95 64 49 0 94-20 95-68h171c3 152-134 229-269 229-143 0-272-77-272-229 0-146 128-197 256-205 51-3 129-6 129-73 0-42-55-66-107-66-56 0-111 24-111 72z"/><glyph unicode="Ś" horiz-adv-x="649" d="M40 215C37 58 179-16 327-16c143 0 286 77 286 224 0 170-130 205-279 218-67 7-107 18-107 65 0 53 54 64 95 64 49 0 94-20 95-68h171c3 152-134 229-269 229-143 0-272-77-272-229 0-146 128-197 256-205 51-3 129-6 129-73 0-42-55-66-107-66-56 0-111 24-111 72m162 552l101 126v15l-157 56-82-181v-16z"/><glyph unicode="Š" horiz-adv-x="649" d="M40 215C37 58 179-16 327-16c143 0 286 77 286 224 0 170-130 205-279 218-67 7-107 18-107 65 0 53 54 64 95 64 49 0 94-20 95-68h171c3 152-134 229-269 229-143 0-272-77-272-229 0-146 128-197 256-205 51-3 129-6 129-73 0-42-55-66-107-66-56 0-111 24-111 72M101 935v-16l142-155h170l144 155v16H392l-63-71-66 71z"/><glyph unicode="Ş" horiz-adv-x="651" d="M41 215C38 77 150 0 277-13l-21-79c24 0 69-11 61-40-8-27-75-19-100-2l-10-92c77-45 222-50 251 44 16 52 2 107-67 118l14 56c112 24 209 94 209 216 0 170-130 205-279 218-67 7-107 18-107 65 0 53 54 64 95 64 49 0 94-20 95-68h171c3 152-134 229-269 229-143 0-272-77-272-229 0-146 128-197 256-205 51-3 129-6 129-73 0-42-55-66-107-66-56 0-111 24-111 72z"/><glyph unicode="Ŝ" horiz-adv-x="649" d="M40 215C37 58 179-16 327-16c143 0 286 77 286 224 0 170-130 205-279 218-67 7-107 18-107 65 0 53 54 64 95 64 49 0 94-20 95-68h171c3 152-134 229-269 229-143 0-272-77-272-229 0-146 128-197 256-205 51-3 129-6 129-73 0-42-55-66-107-66-56 0-111 24-111 72m347 551v16L417 938H246L101 782v-16h166l64 71 66-71z"/><glyph unicode="Ș" horiz-adv-x="649" d="M414-129c0 106-176 106-176 0 0-40 27-64 63-75l-25-75h89l39 108c8 23 10 29 10 42M40 215C37 58 179-16 327-16c143 0 286 77 286 224 0 170-130 205-279 218-67 7-107 18-107 65 0 53 54 64 95 64 49 0 94-20 95-68h171c3 152-134 229-269 229-143 0-272-77-272-229 0-146 128-197 256-205 51-3 129-6 129-73 0-42-55-66-107-66-56 0-111 24-111 72z"/><glyph unicode="T" horiz-adv-x="558" d="M191 540V0h177v540h171v160H19V540z"/><glyph unicode="Ŧ" horiz-adv-x="558" d="M107 247h84V0h177v247h79v135h-79v158h171v160H19V540h172V382h-84z"/><glyph unicode="Ť" horiz-adv-x="558" d="M191 540V0h177v540h171v160H19V540m31 383v-16l144-156h171l145 156v16H344l-64-71-66 71z"/><glyph unicode="Ţ" horiz-adv-x="558" d="M191 540V0h22l-21-80c24 0 69-11 61-40-8-27-75-19-100-2l-10-92c77-45 222-50 251 44 16 52 2 107-67 118l13 52h28v540h171v160H19V540z"/><glyph unicode="Þ" horiz-adv-x="673" d="M255 256v201h129c50 0 76-49 76-99 0-51-28-102-76-102M75 0h183v97h126c166 0 251 128 251 256 3 132-83 263-251 263H258v84H75z"/><glyph unicode="U" horiz-adv-x="706" d="M354-9c147 0 283 83 283 240v469H456V235c0-58-52-83-101-83-52 0-103 25-103 83v465H69V231C69 74 206-9 354-9z"/><glyph unicode="Ú" horiz-adv-x="706" d="M354-9c147 0 283 83 283 240v469H456V235c0-58-52-83-101-83-52 0-103 25-103 83v465H69V231C69 74 206-9 354-9m62 756l101 126v15l-157 56-82-181v-16z"/><glyph unicode="Ŭ" horiz-adv-x="706" d="M354-9c147 0 283 83 283 240v469H456V235c0-58-52-83-101-83-52 0-103 25-103 83v465H69V231C69 74 206-9 354-9M134 935c5-250 437-255 437 0H424c-4-71-137-70-141 0z"/><glyph unicode="Û" horiz-adv-x="706" d="M354-9c147 0 283 83 283 240v469H456V235c0-58-52-83-101-83-52 0-103 25-103 83v465H69V231C69 74 206-9 354-9m222 775v16L432 938H261L116 782v-16h166l64 71 66-71z"/><glyph unicode="Ü" horiz-adv-x="706" d="M354-9c147 0 283 83 283 240v469H456V235c0-58-52-83-101-83-52 0-103 25-103 83v465H69V231C69 74 206-9 354-9m144 775c52 0 93 33 93 85s-41 86-93 86c-53 0-94-34-94-86s41-85 94-85m-272 0c52 0 94 33 94 85s-42 86-94 86-94-34-94-86 42-85 94-85z"/><glyph unicode="Ù" horiz-adv-x="706" d="M354-9c147 0 283 83 283 240v469H456V235c0-58-52-83-101-83-52 0-103 25-103 83v465H69V231C69 74 206-9 354-9m77 759v16l-82 181-157-56v-15l101-126z"/><glyph unicode="Ű" horiz-adv-x="706" d="M354-9c147 0 283 83 283 240v469H456V235c0-58-52-83-101-83-52 0-103 25-103 83v465H69V231C69 74 206-9 354-9m-60 770l85 151v14l-152 33-66-183v-15m363 0l85 129v15l-151 40-66-169v-15z"/><glyph unicode="Ū" horiz-adv-x="706" d="M354-9c147 0 283 83 283 240v469H456V235c0-58-52-83-101-83-52 0-103 25-103 83v465H69V231C69 74 206-9 354-9M185 768h332v135H185z"/><glyph unicode="Ų" horiz-adv-x="707" d="M364-9c-23-33-32-72-21-115 30-129 204-99 282-46L601-64c-29-21-105-58-129-10-17 31-1 71 30 96 80 39 135 108 135 209v469H456V235c0-58-52-83-101-83-52 0-103 25-103 83v465H69V231C69 74 206-9 354-9z"/><glyph unicode="Ů" horiz-adv-x="706" d="M354-9c147 0 283 83 283 240v469H456V235c0-58-52-83-101-83-52 0-103 25-103 83v465H69V231C69 74 206-9 354-9m132 866c0 165-268 165-268 0 0-166 268-167 268 0m-176 0c0 51 85 51 85 0s-85-51-85 0z"/><glyph unicode="Ũ" horiz-adv-x="706" d="M354-9c147 0 283 83 283 240v469H456V235c0-58-52-83-101-83-52 0-103 25-103 83v465H69V231C69 74 206-9 354-9M244 771c21 53 76 21 111 5 87-42 172 11 196 112l-91 43c-16-52-63-23-94-10-101 47-174 3-213-106 29-13 63-31 91-44z"/><glyph unicode="V" horiz-adv-x="678" d="M339 309l-59 183-88 208H-3v-27L302-7h76l302 680v27H485l-86-208-57-183z"/><glyph unicode="W" horiz-adv-x="951" d="M438 688L320 305h-3l-53 204-66 191H6v-27L256-7h102l116 320h3L598-7h97l250 680v27H753l-65-191-49-204h-3L513 688z"/><glyph unicode="Ẃ" horiz-adv-x="951" d="M438 688L320 305h-3l-53 204-66 191H6v-27L256-7h102l116 320h3L598-7h97l250 680v27H753l-65-191-49-204h-3L513 688m14 60l101 126v15l-157 56-82-181v-16z"/><glyph unicode="Ŵ" horiz-adv-x="951" d="M438 688L320 305h-3l-53 204-66 191H6v-27L256-7h102l116 320h3L598-7h97l250 680v27H753l-65-191-49-204h-3L513 688m190 74v16L559 934H388L243 778v-16h166l64 71 66-71z"/><glyph unicode="Ẅ" horiz-adv-x="951" d="M438 688L320 305h-3l-53 204-66 191H6v-27L256-7h102l116 320h3L598-7h97l250 680v27H753l-65-191-49-204h-3L513 688m99 73c52 0 93 33 93 85s-41 86-93 86c-53 0-94-34-94-86s41-85 94-85m-272 0c52 0 94 33 94 85s-42 86-94 86-94-34-94-86 42-85 94-85z"/><glyph unicode="Ẁ" horiz-adv-x="951" d="M438 688L320 305h-3l-53 204-66 191H6v-27L256-7h102l116 320h3L598-7h97l250 680v27H753l-65-191-49-204h-3L513 688m35 67v16l-82 181-157-56v-15l101-126z"/><glyph unicode="X" horiz-adv-x="691" d="M344 509L231 700H33v-27l203-302L9 26V0h206l128 219h6L478 0h204v26L456 371l202 302v27H461L348 509z"/><glyph unicode="Y" horiz-adv-x="641" d="M317 468L190 700H-6v-27l235-396V0h183v277l234 396v27H452L325 468z"/><glyph unicode="Ý" horiz-adv-x="641" d="M317 468L190 700H-6v-27l235-396V0h183v277l234 396v27H452L325 468m42 286l101 126v15l-157 56-82-181v-16z"/><glyph unicode="Ŷ" horiz-adv-x="641" d="M317 468L190 700H-6v-27l235-396V0h183v277l234 396v27H452L325 468m226 297v16L407 937H236L91 781v-16h166l64 71 66-71z"/><glyph unicode="Ÿ" horiz-adv-x="641" d="M317 468L190 700H-6v-27l235-396V0h183v277l234 396v27H452L325 468m132 280c52 0 93 33 93 85s-41 86-93 86c-53 0-94-34-94-86s41-85 94-85m-272 0c52 0 94 33 94 85s-42 86-94 86-94-34-94-86 42-85 94-85z"/><glyph unicode="Ỳ" horiz-adv-x="641" d="M317 468L190 700H-6v-27l235-396V0h183v277l234 396v27H452L325 468m69 280v16l-82 181-157-56v-15l101-126z"/><glyph unicode="Z" horiz-adv-x="614" d="M574 700H49V541h257L24 26V0h553v163H293l281 510z"/><glyph unicode="Ź" horiz-adv-x="614" d="M574 700H49V541h257L24 26V0h553v163H293l281 510m-207 89l101 126v15l-157 56-82-181v-16z"/><glyph unicode="Ž" horiz-adv-x="614" d="M574 700H49V541h257L24 26V0h553v163H293l281 510M80 931v-16l144-156h171l145 156v16H374l-64-71-66 71z"/><glyph unicode="Ż" horiz-adv-x="614" d="M574 700H49V541h257L24 26V0h553v163H293l281 510m-264 85c56 0 99 35 99 91s-43 92-99 92c-55 0-99-36-99-92s44-91 99-91z"/><glyph unicode="a" horiz-adv-x="700" d="M481 87l41-87h189v25L393 707h-84L-12 25V0h191l40 87m131 322l73-169H278z"/><glyph unicode="á" horiz-adv-x="700" d="M481 87l41-87h189v25L393 707h-84L-12 25V0h191l40 87m131 322l73-169H278m141 519l101 126v15l-157 56-82-181v-16z"/><glyph unicode="ă" horiz-adv-x="700" d="M481 87l41-87h189v25L393 707h-84L-12 25V0h191l40 87m131 322l73-169H278M137 931c5-244 427-248 427 0H420c-4-69-133-69-137 0z"/><glyph unicode="â" horiz-adv-x="700" d="M481 87l41-87h189v25L393 707h-84L-12 25V0h191l40 87m131 322l73-169H278m302 519v16L436 931H265L120 775v-16h166l64 71 66-71z"/><glyph unicode="´" horiz-adv-x="303" d="M164 526l101 126v15l-157 56-82-181v-16z"/><glyph unicode="ä" horiz-adv-x="700" d="M481 87l41-87h189v25L393 707h-84L-12 25V0h191l40 87m131 322l73-169H278m207 500c52 0 93 33 93 85s-41 86-93 86c-53 0-94-34-94-86s41-85 94-85m-272 0c52 0 94 33 94 85s-42 86-94 86-94-34-94-86 42-85 94-85z"/><glyph unicode="æ" horiz-adv-x="827" d="M228 153h157V0h392v158H540v130h207v151H540v100h228v159H301L-10 27V0h175m225 544h2l-7-242H284z"/><glyph unicode="ǽ" horiz-adv-x="827" d="M228 153h157V0h392v158H540v130h207v151H540v100h228v159H301L-10 27V0h175m225 544h2l-7-242H284m254 447l101 126v15l-157 56-82-181v-16z"/><glyph unicode="А" horiz-adv-x="700" d="M481 87l41-87h189v25L393 707h-84L-12 25V0h191l40 87m131 322l73-169H278z"/><glyph unicode="Б" horiz-adv-x="666" d="M382 297c49 0 74-32 74-68 0-34-24-69-74-69H254v137m0 243h324v160H75V0h308c167 0 251 106 251 230 0 123-82 219-251 219H254z"/><glyph unicode="В" horiz-adv-x="674" d="M606 488c0 130-91 215-221 215H76V4h337c144 0 222 93 222 213 0 64-30 121-87 150 35 28 58 78 58 121m-234 56c37 0 55-31 54-62-1-28-19-55-54-55H259v117m140-265c36 0 57-30 55-62-3-28-19-54-54-54H259v116z"/><glyph unicode="Г" horiz-adv-x="526" d="M511 540v160H75V0h182v540z"/><glyph unicode="Д" horiz-adv-x="782" d="M340 543h142V151H276c22 18 30 59 32 87M29 155V-82h139V0h418v-82h148v237h-70v545H181l-53-456c-8-65-19-88-73-89z"/><glyph unicode="Е" horiz-adv-x="572" d="M512 700H75V0h446v167H258v114h234v160H258v100h254z"/><glyph unicode="Ё" horiz-adv-x="572" d="M512 700H75V0h446v167H258v114h234v160H258v100h254m-86 216c49 0 89 32 89 81s-40 82-89 82c-51 0-90-33-90-82s39-81 90-81m-260 0c49 0 90 32 90 81s-41 82-90 82-90-33-90-82 41-81 90-81z"/><glyph unicode="Ж" horiz-adv-x="1055" d="M1036 0v27c-67 104-134 209-200 313 39 42 59 105 80 189 12 46 51 54 91 46v123c-118 27-227 12-252-120-10-46-25-113-69-138-17-11-40-12-68-12v272H437V428c-28 0-50 1-67 12-45 25-60 92-69 138-26 132-135 147-253 120V575c41 8 80 0 91-46 21-84 41-147 81-189C153 236 86 131 20 27V0h206c51 90 102 180 153 269 21-2 33-4 58-4V0h181v265c26 0 37 2 59 4C727 180 778 90 829 0z"/><glyph unicode="З" horiz-adv-x="592" d="M215 523c0 29 33 46 66 46 36 0 67-24 67-63 0-30-23-63-68-63h-52V297h54c61 0 91-40 91-79 0-40-30-80-91-80-52 0-94 35-94 90H29C29 70 128-13 282-13c183 0 273 96 273 220 0 79-30 135-102 173 41 31 62 84 62 130 0 102-80 203-234 203-124 0-233-60-227-190z"/><glyph unicode="И" horiz-adv-x="755" d="M497 361V0h183v703h-57L258 358v342H75V-2h54z"/><glyph unicode="Й" horiz-adv-x="755" d="M129-2H75v702h183V358l365 345h57V0H497v361M241 900c3-107 63-163 166-163 106 0 164 56 168 163-33 4-65 8-99 10-6-40-31-53-71-53s-63 18-65 53z"/><glyph unicode="К" horiz-adv-x="723" d="M498 0h207v27c-68 104-133 209-200 313 39 43 63 102 86 186 11 43 41 53 85 50v123c-164 34-232-35-253-120-20-84-31-126-63-142-25-13-73-11-102-11v274H75V0h183v267c25 0 66 0 87 3z"/><glyph unicode="Л" horiz-adv-x="736" d="M327 537h152V0h182v700H167l-49-478c-8-75-21-94-101-87L14 4c201-28 268 9 286 212z"/><glyph unicode="М" horiz-adv-x="835" d="M418 399L140 702H75V0h183v323l149-156h21l149 156V0h183v702h-65z"/><glyph unicode="Н" horiz-adv-x="733" d="M658 0v700H475V447H258v253H75V0h183v280h217V0z"/><glyph unicode="О" horiz-adv-x="794" d="M756 350c0 242-178 364-357 364-182 0-361-122-361-364C38 107 211-13 396-13c212 0 360 149 360 363m-535 0c0 128 87 190 178 190 87 0 174-65 174-190s-89-190-176-190c-90 0-176 65-176 190z"/><glyph unicode="П" horiz-adv-x="732" d="M75 700V0h183v535h216V0h183v700z"/><glyph unicode="Р" horiz-adv-x="658" d="M259 1v181h126c166 0 251 128 251 256 3 132-83 263-251 263-104 1-205 0-309 0V1m180 340v201h129c50 0 76-49 76-99 0-51-28-102-76-102z"/><glyph unicode="С" horiz-adv-x="760" d="M39 349C39 113 218-7 397-7c149 0 304 79 331 278H552c-19-76-79-111-155-111-107 0-175 89-175 190 0 116 69 192 175 192 75 0 128-28 153-100h176c-27 187-185 265-329 265-179 0-358-117-358-358z"/><glyph unicode="Т" horiz-adv-x="558" d="M191 540V0h177v540h171v160H19V540z"/><glyph unicode="У" horiz-adv-x="650" d="M222 195c-34-74-75-73-141-49L57 17C251-55 334 5 404 165l253 516v19H463L345 431h-6L206 700H5v-23l241-432z"/><glyph unicode="Ф" horiz-adv-x="902" d="M678 351c0-100-75-125-149-130v259c78-3 149-29 149-129m-463 0c0 100 71 126 149 129V221c-73 5-149 30-149 130M362-2h169v69c181 6 330 87 330 284S718 630 532 637v66H361v-66c-180-7-329-99-329-286S181 73 362 67z"/><glyph unicode="Х" horiz-adv-x="691" d="M344 509L231 700H33v-27l203-302L9 26V0h206l128 219h6L478 0h204v26L456 371l202 302v27H461L348 509z"/><glyph unicode="Ц" horiz-adv-x="763" d="M568 0v-79h147v234h-71v545H460V165H258v535H75V0z"/><glyph unicode="Ч" horiz-adv-x="654" d="M578 0v699H397V413c-166-20-183 23-183 179v107H30V592c0-282 103-378 367-348V0z"/><glyph unicode="Ш" horiz-adv-x="1037" d="M75 0h887v700H779V165H610v535H427V165H258v535H75z"/><glyph unicode="Щ" horiz-adv-x="1081" d="M75 0h811v-79h147v234h-72v545H779V165H610v535H428V165H259v535H75z"/><glyph unicode="Ъ" horiz-adv-x="714" d="M441 330c98 0 104-168 0-169-42-2-87 0-128 0v169M29 547h105V0h308c335 2 335 491 0 491H313v209H29z"/><glyph unicode="Ы" horiz-adv-x="983" d="M253 700H75V0h307c335 2 335 491 0 491H253v209m129-370c98 0 103-168 0-169-43-2-87 0-129 0v169h129m526 370H726V0h182z"/><glyph unicode="Ь" horiz-adv-x="654" d="M253 700H75V0h307c335 2 335 491 0 491H253m129-161c98 0 103-168 0-169-43-2-87 0-129 0v169z"/><glyph unicode="Э" horiz-adv-x="759" d="M368 545c78 0 145-43 161-121H298V273h228c-21-76-88-117-165-117-76-1-138 37-156 112H28C54 70 212-8 361-8c178-1 360 119 360 358S546 709 368 709c-146 0-304-80-331-267h176c25 71 80 103 155 103z"/><glyph unicode="Ю" horiz-adv-x="1099" d="M1061 350c0 240-178 361-356 363-155 1-310-86-351-266h-96v253H75V0h183v281h92C379 86 539-13 701-15c179-1 360 121 360 365m-534 0c0 125 84 188 174 188 88 0 177-62 177-188 0-128-87-192-175-192-89 0-176 64-176 192z"/><glyph unicode="Я" horiz-adv-x="695" d="M27 26V0h194l120 220h96V0h183v700H312C143 700 60 576 60 453c1-80 35-157 104-204m149 120c-51 0-76 44-76 88s24 84 76 84h127V369z"/><glyph unicode="Ґ" horiz-adv-x="526" d="M511 540v256H368v-96H75V0h182v540z"/><glyph unicode="Ђ" horiz-adv-x="765" d="M730 74v163c0 124-62 217-202 217-54 0-136-25-160-73v161h218v158H19V542h172V0h177v238c2 50 56 83 106 82 43-1 86-28 86-83V76c0-68-16-78-83-73l-5-125c150-29 258 11 258 196z"/><glyph unicode="Ѓ" horiz-adv-x="526" d="M511 540v160H75V0h182v540m93 222l107 111v15l-153 56-89-166v-16z"/><glyph unicode="Є" horiz-adv-x="759" d="M391 545c75 0 130-32 155-103h176c-27 187-185 267-331 267-178 0-353-120-353-359S220-9 398-8c149 0 307 78 333 276H554c-18-75-80-113-156-112-77 0-144 41-165 117h228v151H230c16 78 83 121 161 121z"/><glyph unicode="Ѕ" horiz-adv-x="649" d="M40 215C37 58 179-16 327-16c143 0 286 77 286 224 0 170-130 205-279 218-67 7-107 18-107 65 0 53 54 64 95 64 49 0 94-20 95-68h171c3 152-134 229-269 229-143 0-272-77-272-229 0-146 128-197 256-205 51-3 129-6 129-73 0-42-55-66-107-66-56 0-111 24-111 72z"/><glyph unicode="І" horiz-adv-x="457" d="M320 148v404h81v148H56V552h81V148H48V0h361v148z"/><glyph unicode="Ї" horiz-adv-x="457" d="M320 148v404h81v148H56V552h81V148H48V0h361v148m-49 605c52 0 93 33 93 85s-41 86-93 86c-53 0-94-34-94-86s41-85 94-85m-255 0c52 0 94 33 94 85s-42 86-94 86-94-34-94-86 42-85 94-85z"/><glyph unicode="Ј" horiz-adv-x="627" d="M558 700H272V543h103V234c0-56-36-82-88-82-53 0-94 26-94 82v88H23v-91C23 78 142-10 288-10c144 0 270 88 270 241z"/><glyph unicode="Љ" horiz-adv-x="1001" d="M625 700H167l-49-478c-8-75-21-94-101-87L14 4c201-28 268 9 286 212l27 321h124V0h278c335 2 337 474 2 474H625m104-161c101 0 103-151 0-152-43-2-62 0-104 0v152z"/><glyph unicode="Њ" horiz-adv-x="998" d="M622 700H444V463H258v237H75V0h183v296h186V0h282c335 2 338 467 2 467H622m104-161c101 0 103-144 0-145-43-2-62 0-104 0v145z"/><glyph unicode="Ћ" horiz-adv-x="765" d="M730 0v237c0 124-62 217-202 217-54 0-136-25-160-73v161h218v158H19V542h172V0h177v238c2 50 56 83 106 82 43-1 86-28 86-83V0z"/><glyph unicode="Ќ" horiz-adv-x="723" d="M498 0h207v27c-68 104-133 209-200 313 39 43 63 102 86 186 11 43 41 53 85 50v123c-164 34-232-35-253-120-20-84-31-126-63-142-25-13-73-11-102-11v274H75V0h183v267c25 0 66 0 87 3m79 492l107 111v15l-153 56-89-166v-16z"/><glyph unicode="Ў" horiz-adv-x="650" d="M169 905c3-107 63-163 166-163 106 0 164 56 168 163-33 4-65 8-99 10-6-40-31-53-71-53s-63 18-65 53m-46-720c-34-74-75-73-141-49L57 17C251-55 334 5 404 165l253 516v19H463L345 431h-6L206 700H5v-23l241-432z"/><glyph unicode="а" horiz-adv-x="700" d="M481 87l41-87h189v25L393 707h-84L-12 25V0h191l40 87m131 322l73-169H278z"/><glyph unicode="б" horiz-adv-x="666" d="M382 297c49 0 74-32 74-68 0-34-24-69-74-69H254v137m0 243h324v160H75V0h308c167 0 251 106 251 230 0 123-82 219-251 219H254z"/><glyph unicode="в" horiz-adv-x="674" d="M606 488c0 130-91 215-221 215H76V4h337c144 0 222 93 222 213 0 64-30 121-87 150 35 28 58 78 58 121m-234 56c37 0 55-31 54-62-1-28-19-55-54-55H259v117m140-265c36 0 57-30 55-62-3-28-19-54-54-54H259v116z"/><glyph unicode="г" horiz-adv-x="526" d="M511 540v160H75V0h182v540z"/><glyph unicode="д" horiz-adv-x="782" d="M340 543h142V151H276c22 18 30 59 32 87M29 155V-82h139V0h418v-82h148v237h-70v545H181l-53-456c-8-65-19-88-73-89z"/><glyph unicode="е" horiz-adv-x="572" d="M512 700H75V0h446v167H258v114h234v160H258v100h254z"/><glyph unicode="ё" horiz-adv-x="572" d="M512 700H75V0h446v167H258v114h234v160H258v100h254m-86 216c49 0 89 32 89 81s-40 82-89 82c-51 0-90-33-90-82s39-81 90-81m-260 0c49 0 90 32 90 81s-41 82-90 82-90-33-90-82 41-81 90-81z"/><glyph unicode="ж" horiz-adv-x="1055" d="M1036 0v27c-67 104-134 209-200 313 39 42 59 105 80 189 12 46 51 54 91 46v123c-118 27-227 12-252-120-10-46-25-113-69-138-17-11-40-12-68-12v272H437V428c-28 0-50 1-67 12-45 25-60 92-69 138-26 132-135 147-253 120V575c41 8 80 0 91-46 21-84 41-147 81-189C153 236 86 131 20 27V0h206c51 90 102 180 153 269 21-2 33-4 58-4V0h181v265c26 0 37 2 59 4C727 180 778 90 829 0z"/><glyph unicode="з" horiz-adv-x="592" d="M215 523c0 29 33 46 66 46 36 0 67-24 67-63 0-30-23-63-68-63h-52V297h54c61 0 91-40 91-79 0-40-30-80-91-80-52 0-94 35-94 90H29C29 70 128-13 282-13c183 0 273 96 273 220 0 79-30 135-102 173 41 31 62 84 62 130 0 102-80 203-234 203-124 0-233-60-227-190z"/><glyph unicode="и" horiz-adv-x="755" d="M497 361V0h183v703h-57L258 358v342H75V-2h54z"/><glyph unicode="й" horiz-adv-x="755" d="M129-2H75v702h183V358l365 345h57V0H497v361M241 900c3-107 63-163 166-163 106 0 164 56 168 163-33 4-65 8-99 10-6-40-31-53-71-53s-63 18-65 53z"/><glyph unicode="к" horiz-adv-x="723" d="M498 0h207v27c-68 104-133 209-200 313 39 43 63 102 86 186 11 43 41 53 85 50v123c-164 34-232-35-253-120-20-84-31-126-63-142-25-13-73-11-102-11v274H75V0h183v267c25 0 66 0 87 3z"/><glyph unicode="л" horiz-adv-x="736" d="M327 537h152V0h182v700H167l-49-478c-8-75-21-94-101-87L14 4c201-28 268 9 286 212z"/><glyph unicode="м" horiz-adv-x="835" d="M418 399L140 702H75V0h183v323l149-156h21l149 156V0h183v702h-65z"/><glyph unicode="н" horiz-adv-x="733" d="M658 0v700H475V447H258v253H75V0h183v280h217V0z"/><glyph unicode="о" horiz-adv-x="794" d="M756 350c0 242-178 364-357 364-182 0-361-122-361-364C38 107 211-13 396-13c212 0 360 149 360 363m-535 0c0 128 87 190 178 190 87 0 174-65 174-190s-89-190-176-190c-90 0-176 65-176 190z"/><glyph unicode="п" horiz-adv-x="732" d="M75 700V0h183v535h216V0h183v700z"/><glyph unicode="р" horiz-adv-x="658" d="M259 1v181h126c166 0 251 128 251 256 3 132-83 263-251 263-104 1-205 0-309 0V1m180 340v201h129c50 0 76-49 76-99 0-51-28-102-76-102z"/><glyph unicode="с" horiz-adv-x="760" d="M39 349C39 113 218-7 397-7c149 0 304 79 331 278H552c-19-76-79-111-155-111-107 0-175 89-175 190 0 116 69 192 175 192 75 0 128-28 153-100h176c-27 187-185 265-329 265-179 0-358-117-358-358z"/><glyph unicode="т" horiz-adv-x="558" d="M191 540V0h177v540h171v160H19V540z"/><glyph unicode="у" horiz-adv-x="650" d="M222 195c-34-74-75-73-141-49L57 17C251-55 334 5 404 165l253 516v19H463L345 431h-6L206 700H5v-23l241-432z"/><glyph unicode="ф" horiz-adv-x="902" d="M678 351c0-100-75-125-149-130v259c78-3 149-29 149-129m-463 0c0 100 71 126 149 129V221c-73 5-149 30-149 130M362-2h169v69c181 6 330 87 330 284S718 630 532 637v66H361v-66c-180-7-329-99-329-286S181 73 362 67z"/><glyph unicode="х" horiz-adv-x="691" d="M344 509L231 700H33v-27l203-302L9 26V0h206l128 219h6L478 0h204v26L456 371l202 302v27H461L348 509z"/><glyph unicode="ц" horiz-adv-x="763" d="M568 0v-79h147v234h-71v545H460V165H258v535H75V0z"/><glyph unicode="ч" horiz-adv-x="654" d="M578 0v699H397V413c-166-20-183 23-183 179v107H30V592c0-282 103-378 367-348V0z"/><glyph unicode="ш" horiz-adv-x="1037" d="M75 0h887v700H779V165H610v535H427V165H258v535H75z"/><glyph unicode="щ" horiz-adv-x="1081" d="M75 0h811v-79h147v234h-72v545H779V165H610v535H428V165H259v535H75z"/><glyph unicode="ъ" horiz-adv-x="714" d="M441 330c98 0 104-168 0-169-42-2-87 0-128 0v169M29 547h105V0h308c335 2 335 491 0 491H313v209H29z"/><glyph unicode="ы" horiz-adv-x="983" d="M253 700H75V0h307c335 2 335 491 0 491H253v209m129-370c98 0 103-168 0-169-43-2-87 0-129 0v169h129m526 370H726V0h182z"/><glyph unicode="ь" horiz-adv-x="654" d="M253 700H75V0h307c335 2 335 491 0 491H253m129-161c98 0 103-168 0-169-43-2-87 0-129 0v169z"/><glyph unicode="э" horiz-adv-x="759" d="M368 545c78 0 145-43 161-121H298V273h228c-21-76-88-117-165-117-76-1-138 37-156 112H28C54 70 212-8 361-8c178-1 360 119 360 358S546 709 368 709c-146 0-304-80-331-267h176c25 71 80 103 155 103z"/><glyph unicode="ю" horiz-adv-x="1099" d="M1061 350c0 240-178 361-356 363-155 1-310-86-351-266h-96v253H75V0h183v281h92C379 86 539-13 701-15c179-1 360 121 360 365m-534 0c0 125 84 188 174 188 88 0 177-62 177-188 0-128-87-192-175-192-89 0-176 64-176 192z"/><glyph unicode="я" horiz-adv-x="695" d="M27 26V0h194l120 220h96V0h183v700H312C143 700 60 576 60 453c1-80 35-157 104-204m149 120c-51 0-76 44-76 88s24 84 76 84h127V369z"/><glyph unicode="ґ" horiz-adv-x="526" d="M511 540v256H368v-96H75V0h182v540z"/><glyph unicode="ђ" horiz-adv-x="765" d="M730 74v163c0 124-62 217-202 217-54 0-136-25-160-73v161h218v158H19V542h172V0h177v238c2 50 56 83 106 82 43-1 86-28 86-83V76c0-68-16-78-83-73l-5-125c150-29 258 11 258 196z"/><glyph unicode="ѓ" horiz-adv-x="526" d="M511 540v160H75V0h182v540m93 222l107 111v15l-153 56-89-166v-16z"/><glyph unicode="є" horiz-adv-x="759" d="M391 545c75 0 130-32 155-103h176c-27 187-185 267-331 267-178 0-353-120-353-359S220-9 398-8c149 0 307 78 333 276H554c-18-75-80-113-156-112-77 0-144 41-165 117h228v151H230c16 78 83 121 161 121z"/><glyph unicode="ѕ" horiz-adv-x="649" d="M40 215C37 58 179-16 327-16c143 0 286 77 286 224 0 170-130 205-279 218-67 7-107 18-107 65 0 53 54 64 95 64 49 0 94-20 95-68h171c3 152-134 229-269 229-143 0-272-77-272-229 0-146 128-197 256-205 51-3 129-6 129-73 0-42-55-66-107-66-56 0-111 24-111 72z"/><glyph unicode="і" horiz-adv-x="457" d="M320 148v404h81v148H56V552h81V148H48V0h361v148z"/><glyph unicode="ї" horiz-adv-x="457" d="M320 148v404h81v148H56V552h81V148H48V0h361v148m-49 605c52 0 93 33 93 85s-41 86-93 86c-53 0-94-34-94-86s41-85 94-85m-255 0c52 0 94 33 94 85s-42 86-94 86-94-34-94-86 42-85 94-85z"/><glyph unicode="ј" horiz-adv-x="627" d="M558 700H272V543h103V234c0-56-36-82-88-82-53 0-94 26-94 82v88H23v-91C23 78 142-10 288-10c144 0 270 88 270 241z"/><glyph unicode="љ" horiz-adv-x="1001" d="M625 700H167l-49-478c-8-75-21-94-101-87L14 4c201-28 268 9 286 212l27 321h124V0h278c335 2 337 474 2 474H625m104-161c101 0 103-151 0-152-43-2-62 0-104 0v152z"/><glyph unicode="њ" horiz-adv-x="998" d="M622 700H444V463H258v237H75V0h183v296h186V0h282c335 2 338 467 2 467H622m104-161c101 0 103-144 0-145-43-2-62 0-104 0v145z"/><glyph unicode="ћ" horiz-adv-x="765" d="M730 0v237c0 124-62 217-202 217-54 0-136-25-160-73v161h218v158H19V542h172V0h177v238c2 50 56 83 106 82 43-1 86-28 86-83V0z"/><glyph unicode="ќ" horiz-adv-x="723" d="M498 0h207v27c-68 104-133 209-200 313 39 43 63 102 86 186 11 43 41 53 85 50v123c-164 34-232-35-253-120-20-84-31-126-63-142-25-13-73-11-102-11v274H75V0h183v267c25 0 66 0 87 3m79 492l107 111v15l-153 56-89-166v-16z"/><glyph unicode="ў" horiz-adv-x="650" d="M169 905c3-107 63-163 166-163 106 0 164 56 168 163-33 4-65 8-99 10-6-40-31-53-71-53s-63 18-65 53m-46-720c-34-74-75-73-141-49L57 17C251-55 334 5 404 165l253 516v19H463L345 431h-6L206 700H5v-23l241-432z"/><glyph unicode="Џ" horiz-adv-x="732" d="M280-131h176V0h201v700H474V165H258v535H75V0h205z"/><glyph unicode="џ" horiz-adv-x="732" d="M280-131h176V0h201v700H474V165H258v535H75V0h205z"/><glyph unicode="№" horiz-adv-x="1562" d="M632-2h54v702H503V358L138 703H81V0h183v361m1253-11c0 242-178 364-357 364-182 0-361-122-361-364 0-243 173-363 358-363 212 0 360 149 360 363m-535 0c0 128 87 190 178 190 87 0 174-65 174-190s-89-190-176-190c-90 0-176 65-176 190z"/><glyph unicode="à" horiz-adv-x="700" d="M481 87l41-87h189v25L393 707h-84L-12 25V0h191l40 87m131 322l73-169H278m151 521v16l-82 181-157-56v-15l101-126z"/><glyph unicode="ā" horiz-adv-x="700" d="M481 87l41-87h189v25L393 707h-84L-12 25V0h191l40 87m131 322l73-169H278m-94 522h332v135H184z"/><glyph unicode="&amp;" horiz-adv-x="650" d="M530 524c5 129-95 188-216 188-147 0-228-94-228-187-1-33 8-65 27-94 8-12 17-23 29-34-63-37-97-105-98-178-3-111 78-231 270-231 149 0 240 91 240 238v85h62v150H405V226c0-53-39-87-91-87-61 0-91 43-91 86s32 86 91 86h31v148h-29c-27 0-46 12-54 27-5 7-7 16-7 26 0 35 28 55 63 55 28 0 57-16 57-43z"/><glyph unicode="ą" horiz-adv-x="700" d="M350 409l73-169H278M481 87l39-83c-56-45-85-105-60-173 40-109 202-85 277-34L713-97c-29-21-97-55-121-7-22 36 6 91 58 104h61v25L393 707h-84L-12 25V0h191l40 87z"/><glyph unicode="å" horiz-adv-x="700" d="M302 811c0 53 90 53 90 0 0-54-90-54-90 0m48-402l73-169H278M481 87l41-87h189v25L401 689c49 17 87 57 87 122 0 174-283 174-283 0 0-68 42-109 94-125L-12 25V0h191l40 87z"/><glyph unicode="ǻ" horiz-adv-x="701" d="M309 734c0 45 85 45 85 0 0-44-85-44-85 0m44-325l71-169H279l70 169M482 87l41-87h189v25L424 642c35 17 61 48 61 93 0 145-269 145-269 0 0-47 26-77 63-94L-11 25V0h191l40 87m192 773l97 95v11l-152 43-79-137v-12z"/><glyph unicode="↔" horiz-adv-x="989" d="M944 333v24L642 639l-105-99 140-115H308l140 115-105 99L41 357v-24L342 50l105 99-137 116h365L538 149l105-99z"/><glyph unicode="↓" horiz-adv-x="706" d="M341 20h24l292 313-102 108-119-145 7 372H263l7-369-120 141L48 332z"/><glyph unicode="←" horiz-adv-x="764" d="M357 40l108 102-141 120 369-7v180l-372-7 145 119-108 102L45 357v-24z"/><glyph unicode="→" horiz-adv-x="771" d="M713 333v24L400 649 292 547l145-119-372 7V255l369 7-141-120L401 40z"/><glyph unicode="↑" horiz-adv-x="723" d="M370 668h-24L54 355l102-108 119 145-7-372h180l-7 369 120-141 102 108z"/><glyph unicode="↕" horiz-adv-x="694" d="M340-53h24l280 290-98 101-115-134v321l115-134 98 101-280 290h-24L59 493l98-101 116 131V206L157 337 59 236z"/><glyph unicode="^" horiz-adv-x="584" d="M231 710L42 395h148l101 171 103-171h148L353 710z"/><glyph unicode="~" horiz-adv-x="630" d="M139 251c43 91 118 38 185 11 132-57 222-29 270 122-43 20-69 34-112 54-34-87-107-39-163-12-121 62-250 12-282-120z"/><glyph unicode="*" horiz-adv-x="445" d="M404 554l-39 116-90-36 12 91H158l11-91-92 36-36-117 97-22-69-72 103-78 51 82 51-81 105 76-70 75z"/><glyph unicode="@" horiz-adv-x="945" d="M561 62c-4-56 38-88 97-88 107 0 232 83 248 270 24 260-124 426-386 426-251 0-450-177-474-430C17-74 244-247 533-145l9 96c-238-99-419 35-395 289 16 197 169 329 363 329 208 0 313-118 296-325-8-84-43-148-81-148-15 0-22 15-19 54l25 274c-48 40-137 70-198 73-163 3-295-85-311-257-13-136 53-257 201-254 56 3 109 31 138 82m-4 276c-3-33-7-88-11-121-3-44-34-84-81-85-60-3-77 50-72 102 7 72 50 113 106 117 18 0 37-4 58-13z"/><glyph unicode="ã" horiz-adv-x="700" d="M481 87l41-87h189v25L393 707h-84L-12 25V0h191l40 87m131 322l73-169H278m-40 523c21 53 76 21 111 5 87-42 172 11 196 112l-91 43c-16-52-63-23-94-10-101 47-174 3-213-106 29-13 63-31 91-44z"/><glyph unicode="b" horiz-adv-x="674" d="M606 488c0 130-91 215-221 215H76V4h337c144 0 222 93 222 213 0 64-30 121-87 150 35 28 58 78 58 121m-234 56c37 0 55-31 54-62-1-28-19-55-54-55H259v117m140-265c12 0 21-3 30-7 17-12 26-34 25-55-3-28-19-54-54-54H259v116z"/><glyph unicode="\" horiz-adv-x="565" d="M201 700H26L364 1h175z"/><glyph unicode="|" horiz-adv-x="294" d="M70 713V-91h154v804z"/><glyph unicode="{" horiz-adv-x="343" d="M304 789c-118 0-219 4-219-156V449c0-41-9-72-56-75V249c44 0 56-42 56-80V-35c0-168 92-163 219-163v135c-31-5-60-3-60 35v212c0 61-33 108-93 127 55 17 93 65 93 122v194c0 37 28 43 60 42z"/><glyph unicode="}" horiz-adv-x="343" d="M39 669c32 1 60-5 60-42V433c0-57 38-105 93-122-60-19-93-66-93-127V-28c0-38-29-40-60-35v-135c127 0 219-5 219 163v204c0 38 12 80 56 80v125c-47 3-56 34-56 75v184c0 160-101 156-219 156z"/><glyph unicode="[" horiz-adv-x="350" d="M311 778H67v-976h244v151h-86v688h86z"/><glyph unicode="]" horiz-adv-x="350" d="M39 641h86V-47H39v-151h244v976H39z"/><glyph unicode="˘" horiz-adv-x="529" d="M43 700c5-250 437-255 437 0H333c-4-71-137-70-141 0z"/><glyph unicode="¦" horiz-adv-x="296" d="M71 713V383h154v330M71 309V-25h154v334z"/><glyph unicode="•" horiz-adv-x="486" d="M243 200c96 0 173 63 173 159 0 98-77 161-173 161-93 0-173-63-173-161 0-96 80-159 173-159z"/><glyph unicode="c" horiz-adv-x="760" d="M39 349C39 113 218-7 397-7c149 0 304 79 331 278H552c-19-76-79-111-155-111-107 0-175 89-175 190 0 116 69 192 175 192 75 0 128-28 153-100h176c-27 187-185 265-329 265-179 0-358-117-358-358z"/><glyph unicode="ć" horiz-adv-x="760" d="M39 349C39 113 218-7 397-7c149 0 304 79 331 278H552c-19-76-79-111-155-111-107 0-175 89-175 190 0 116 69 192 175 192 75 0 128-28 153-100h176c-27 187-185 265-329 265-179 0-358-117-358-358m409 412l101 126v15l-157 56-82-181v-16z"/><glyph unicode="ˇ" horiz-adv-x="531" d="M34 701v-16l144-156h171l145 156v16H328l-64-71-66 71z"/><glyph unicode="č" horiz-adv-x="760" d="M39 349C39 113 218-7 397-7c149 0 304 79 331 278H552c-19-76-79-111-155-111-107 0-175 89-175 190 0 116 69 192 175 192 75 0 128-28 153-100h176c-27 187-185 265-329 265-179 0-358-117-358-358m138 584v-16l142-153h168l142 153v16H466l-63-70-64 70z"/><glyph unicode="ç" horiz-adv-x="760" d="M39 349C39 136 184 18 343-3l-20-77c24 0 69-11 61-40-8-27-75-19-100-2l-10-92c77-45 222-50 251 44 16 52 2 107-67 118l13 52c123 21 236 105 257 270H552c-19-76-79-111-155-111-107 0-175 89-175 190 0 117 69 193 175 193 75 0 128-28 153-100h176c-27 187-185 265-329 265-179 0-358-117-358-358z"/><glyph unicode="ĉ" horiz-adv-x="760" d="M39 349C39 113 218-7 397-7c149 0 304 79 331 278H552c-19-76-79-111-155-111-107 0-175 89-175 190 0 116 69 192 175 192 75 0 128-28 153-100h176c-27 187-185 265-329 265-179 0-358-117-358-358m582 411v16L477 932H306L161 776v-16h166l64 71 66-71z"/><glyph unicode="ċ" horiz-adv-x="760" d="M39 349C39 113 218-7 397-7c149 0 304 79 331 278H552c-19-76-79-111-155-111-107 0-175 89-175 190 0 116 69 192 175 192 75 0 128-28 153-100h176c-27 187-185 265-329 265-179 0-358-117-358-358m358 410c56 0 99 35 99 91s-43 92-99 92c-55 0-99-36-99-92s44-91 99-91z"/><glyph unicode="¸" horiz-adv-x="392" d="M121-80c24 0 69-11 61-40-8-27-75-19-100-2l-10-92c77-45 222-50 251 44 16 52 2 107-67 118l17 68H147z"/><glyph unicode="¢" horiz-adv-x="603" d="M553 292c-11 88-60 148-128 180l33 94h-70l-26-74C219 518 51 435 51 242c0-118 63-196 143-231l-31-92h74l25 72c130-21 274 47 293 205H394c-13-43-48-63-84-62l65 189c7-8 14-18 19-31M248 163c-16 19-28 44-28 79 0 68 45 102 91 105z"/><glyph unicode="ˆ" horiz-adv-x="531" d="M494 529v16L350 701H179L34 545v-16h166l64 71 66-71z"/><glyph unicode=":" horiz-adv-x="320" d="M160-18c56 0 99 35 99 91s-43 92-99 92c-55 0-99-36-99-92s44-91 99-91m0 300c56 0 99 35 99 91s-43 92-99 92c-55 0-99-36-99-92s44-91 99-91z"/><glyph unicode="," horiz-adv-x="294" d="M245 73c0 56-43 92-98 92-56 0-99-36-99-92 0-45 30-77 70-88l-26-91h99l47 144c5 12 7 20 7 35z"/><glyph unicode="©" horiz-adv-x="785" d="M739 347c0 464-693 464-693 0 0-465 693-465 693 0m-194 32c-21 186-308 174-307-33 0-207 288-215 308-29h-98c-18-63-105-48-105 29 0 79 86 89 105 33m-280-32c0 324 449 323 449 0s-449-323-449 0z"/><glyph unicode="¤" horiz-adv-x="587" d="M479 340c0 28-6 54-14 75l61 61-91 92-62-62c-47 20-103 21-152 4l-64 64-92-91 59-59c-11-24-18-52-18-84 0-27 5-52 14-75l-61-61 92-92 61 62c47-20 104-22 153-3l63-65 92 91-59 59c11 24 18 51 18 84m-254 0c0 99 136 99 136 0s-136-99-136 0z"/><glyph unicode="d" horiz-adv-x="727" d="M76 699V0h267c232 0 348 177 345 353 0 172-117 346-345 346m-84-534v370h82c108 0 164-92 164-184 0-93-53-186-164-186z"/><glyph unicode="†" horiz-adv-x="483" d="M35 349h129V-91h154v440h130v143H318v221H164V492H35z"/><glyph unicode="‡" horiz-adv-x="528" d="M50 113h135V-91h154v204h139v140H339v127h139v140H339v193H185V520H50V380h135V253H50z"/><glyph unicode="ď" horiz-adv-x="727" d="M76 699V0h267c232 0 348 177 345 353 0 172-117 346-345 346m-84-534v370h82c108 0 164-92 164-184 0-93-53-186-164-186M95 925v-15l138-149h163l138 149v15H376l-61-67-63 67z"/><glyph unicode="đ" horiz-adv-x="738" d="M13 274h74V0h267c232 0 348 177 345 353 0 172-117 346-345 346H87V416H13m257-251v109h105v142H270v119h82c108 0 164-92 164-184 0-93-53-186-164-186z"/><glyph unicode="°" horiz-adv-x="451" d="M413 539c0 233-375 233-375 0s375-233 375 0m-252 0c0 88 126 88 126 0 0-87-126-87-126 0z"/><glyph unicode="¨" horiz-adv-x="578" d="M423 543c52 0 93 33 93 85s-41 86-93 86c-53 0-94-34-94-86s41-85 94-85m-272 0c52 0 94 33 94 85s-42 86-94 86-94-34-94-86 42-85 94-85z"/><glyph unicode="÷" horiz-adv-x="546" d="M274 62c56 0 99 35 99 91s-43 92-99 92c-55 0-99-36-99-92s44-91 99-91m0 414c56 0 99 35 99 91s-43 92-99 92c-55 0-99-36-99-92s44-91 99-91M43 285h460v146H43z"/><glyph unicode="$" horiz-adv-x="651" d="M39 215C39 75 150 1 282-15v-69h89v70C499 2 614 76 614 208c0 156-109 199-243 215v123c27-11 46-28 46-59h171c3 132-101 208-217 224v72h-89v-69C155 701 47 627 47 487c0-137 116-191 235-202V149c-37 8-67 31-67 66m156 60c35-9 60-27 60-67 0-28-25-47-60-58m-89 284c-35 11-54 25-54 57 0 36 25 52 54 60z"/><glyph unicode="˙" horiz-adv-x="321" d="M146 530c56 0 99 35 99 91s-43 92-99 92c-55 0-99-36-99-92s44-91 99-91z"/><glyph unicode="ı" horiz-adv-x="457" d="M320 148v404h81v148H56V552h81V148H48V0h361v148z"/><glyph unicode="e" horiz-adv-x="572" d="M512 700H75V0h446v167H258v114h234v160H258v100h254z"/><glyph unicode="é" horiz-adv-x="572" d="M512 700H75V0h446v167H258v114h234v160H258v100h254M358 752l101 126v15l-157 56-82-181v-16z"/><glyph unicode="ĕ" horiz-adv-x="572" d="M512 700H75V0h446v167H258v114h234v160H258v100h254M87 930c5-240 420-244 420 0H366c-4-67-131-66-135 0z"/><glyph unicode="ě" horiz-adv-x="572" d="M512 700H75V0h446v167H258v114h234v160H258v100h254M77 927v-16l139-150h165l140 150v16H361l-62-69-64 69z"/><glyph unicode="ê" horiz-adv-x="572" d="M512 700H75V0h446v167H258v114h234v160H258v100h254m6 209v15L381 919H218L79 765v-15h159l61 70 63-70z"/><glyph unicode="ë" horiz-adv-x="572" d="M512 700H75V0h446v167H258v114h234v160H258v100h254m-80 212c52 0 93 33 93 85s-41 86-93 86c-53 0-94-34-94-86s41-85 94-85m-272 0c52 0 94 33 94 85s-42 86-94 86-94-34-94-86 42-85 94-85z"/><glyph unicode="ė" horiz-adv-x="572" d="M512 700H75V0h446v167H258v114h234v160H258v100h254M296 748c56 0 99 35 99 91s-43 92-99 92c-55 0-99-36-99-92s44-91 99-91z"/><glyph unicode="è" horiz-adv-x="572" d="M512 700H75V0h446v167H258v114h234v160H258v100h254M390 750v16l-82 181-157-56v-15l101-126z"/><glyph unicode="8" horiz-adv-x="623" d="M489 398c32 36 48 76 48 121 0 96-73 193-225 193-153 0-228-100-225-196 1-43 18-84 47-117-60-44-91-110-91-178 0-116 89-233 269-233s271 119 268 235c-3 67-31 131-91 175m-177 53c-43 0-66 28-66 59 0 29 21 60 66 60 43 0 65-30 65-58 0-31-21-61-65-61m0-312c-60 0-90 43-90 87 0 47 29 94 90 94 60 0 90-46 90-91s-30-90-90-90z"/><glyph unicode="…" horiz-adv-x="857" d="M147-18c56 0 99 35 99 91s-43 92-99 92c-55 0-99-36-99-92s44-91 99-91m280 0c56 0 99 35 99 91s-43 92-99 92c-55 0-99-36-99-92s44-91 99-91m283 0c56 0 99 35 99 91s-43 92-99 92c-55 0-99-36-99-92s44-91 99-91z"/><glyph unicode="ē" horiz-adv-x="572" d="M512 700H75V0h446v167H258v114h234v160H258v100h254M132 763h332v135H132z"/><glyph unicode="—" horiz-adv-x="633" d="M57 260h519v146H57z"/><glyph unicode="–" horiz-adv-x="545" d="M57 260h431v146H57z"/><glyph unicode="ŋ" horiz-adv-x="755" d="M440-191c147-27 240 10 240 192v699H497V358L132 703H75V0h183v361L529 93V3c0-67-18-77-84-72z"/><glyph unicode="ę" horiz-adv-x="572" d="M512 700H75V0h236c-43-37-71-91-55-151 32-133 202-102 282-49L514-94c-29-21-105-58-129-10-19 35 3 80 40 104h96v167H258v114h234v160H258v100h254z"/><glyph unicode="=" horiz-adv-x="557" d="M65 374h427v140H65m0-361h427v140H65z"/><glyph unicode="ð" horiz-adv-x="738" d="M13 273h74V0h267c232 0 348 177 345 353 0 172-117 346-345 346H87V416H13m257-251v108h105v143H270v119h82c108 0 164-92 164-184 0-93-53-186-164-186z"/><glyph unicode="!" horiz-adv-x="325" d="M163-15c56 0 99 36 99 91 0 56-43 92-99 92-55 0-98-36-98-92 0-55 43-91 98-91M77 194h173l11 508H62z"/><glyph unicode="¡" horiz-adv-x="306" d="M153 490c-56 0-99-36-99-91 0-56 43-92 99-92 55 0 98 36 98 92 0 55-43 91-98 91m86-209H66L55-227h199z"/><glyph unicode="f" horiz-adv-x="546" d="M482 386H258v155h254v159H75V0h183v226h224z"/><glyph unicode="5" horiz-adv-x="585" d="M218 548h288v152H69V320c33 1 91 8 147 5 77-3 150-23 150-97 0-47-29-83-77-83-47 0-77 21-78 68H52C55 74 157-14 293-14c163 0 246 124 246 242 0 180-118 232-264 235-19 0-38-1-57-2z"/><glyph unicode="ƒ" horiz-adv-x="564" d="M368 281h140v121H368v118c0 92 86 81 147 62l15 126c-166 46-330 22-330-183l-1-123H62V281h137V-25c0-93-87-80-148-61L36-213c165-43 331-24 331 184z"/><glyph unicode="4" horiz-adv-x="608" d="M495 121h61v147h-61v422H303L21 200v-79h309V-10h165M351 492l-9-119V261H220l129 231z"/><glyph unicode="⁄" horiz-adv-x="532" d="M-11-60h175l382 789H371z"/><glyph unicode="g" horiz-adv-x="766" d="M38 349C38 110 220-9 398-9c130 0 262 56 313 203 23 68 24 135 19 203H400V243h149c-33-67-79-85-151-85-107 0-175 75-175 192 0 106 62 195 175 195 68 0 112-21 143-77h178c-37 170-182 241-321 241-178 0-360-120-360-360z"/><glyph unicode="ğ" horiz-adv-x="766" d="M38 349C38 110 220-9 398-9c130 0 262 56 313 203 23 68 24 135 19 203H400V243h149c-33-67-79-85-151-85-107 0-175 75-175 192 0 106 62 195 175 195 68 0 112-21 143-77h178c-37 170-182 241-321 241-178 0-360-120-360-360m134 600c5-250 437-255 437 0H462c-4-71-137-70-141 0z"/><glyph unicode="ĝ" horiz-adv-x="766" d="M38 349C38 110 220-9 398-9c130 0 262 56 313 203 23 68 24 135 19 203H400V243h149c-33-67-79-85-151-85-107 0-175 75-175 192 0 106 62 195 175 195 68 0 112-21 143-77h178c-37 170-182 241-321 241-178 0-360-120-360-360m582 409v16L476 930H305L160 774v-16h166l64 71 66-71z"/><glyph unicode="ģ" horiz-adv-x="766" d="M499-136c0 51-39 82-88 82s-88-31-88-82c0-40 27-68 63-79l-20-64h89l38 112c4 11 6 18 6 31M38 349C38 110 220-9 398-9c130 0 262 56 313 203 23 68 24 135 19 203H400V243h149c-33-67-79-85-151-85-107 0-175 75-175 192 0 106 62 195 175 195 68 0 112-21 143-77h178c-37 170-182 241-321 241-178 0-360-120-360-360z"/><glyph unicode="ġ" horiz-adv-x="766" d="M38 349C38 110 220-9 398-9c130 0 262 56 313 203 23 68 24 135 19 203H400V243h149c-33-67-79-85-151-85-107 0-175 75-175 192 0 106 62 195 175 195 68 0 112-21 143-77h178c-37 170-182 241-321 241-178 0-360-120-360-360m358 414c59 0 102 33 102 88 0 53-43 89-102 89-56 0-102-36-102-89 0-55 46-88 102-88z"/><glyph unicode="ß" horiz-adv-x="623" d="M60 0h169v488c0 69 70 98 139 66l-80-216v-27c71 0 114-2 117-82-3-48-31-105-111-81V12c169-59 296 37 296 217 0 85-45 164-125 185l99 220v26C444 692 60 795 60 491z"/><glyph unicode="`" horiz-adv-x="336" d="M291 526v16l-82 181-157-56v-15l101-126z"/><glyph unicode="&gt;" horiz-adv-x="562" d="M522 406L75 592V443l251-100-251-99V95l447 186z"/><glyph unicode="«" horiz-adv-x="529" d="M275 562l-75 38L42 346 200 94l75 39-94 213m296 216l-75 38-158-254L402 94l75 39-94 213z"/><glyph unicode="»" horiz-adv-x="529" d="M348 346l-94-213 75-39 158 252-158 254-75-38M146 346L52 133l75-39 158 252-158 254-75-38z"/><glyph unicode="‹" horiz-adv-x="327" d="M275 562l-75 38L42 346 200 94l75 39-94 213z"/><glyph unicode="›" horiz-adv-x="327" d="M146 346L52 133l75-39 158 252-158 254-75-38z"/><glyph unicode="h" horiz-adv-x="733" d="M658 0v700H475V447H258v253H75V0h183v280h217V0z"/><glyph unicode="ħ" horiz-adv-x="743" d="M24 507h56V0h183v264h217V0h183v507h58v121h-58v72H480v-72H263v72H80v-72H24m239-197v76h217v-76z"/><glyph unicode="ĥ" horiz-adv-x="733" d="M658 0v700H475V447H258v253H75V0h183v280h217V0m118 755v16L449 927H278L133 771v-16h166l64 71 66-71z"/><glyph unicode="˝" horiz-adv-x="518" d="M171 521l85 151v14l-152 33-66-183v-15m363 0l85 129v15l-151 40-66-169v-15z"/><glyph unicode="-" horiz-adv-x="475" d="M57 260h361v146H57z"/><glyph unicode="i" horiz-adv-x="457" d="M320 148v404h81v148H56V552h81V148H48V0h361v148z"/><glyph unicode="í" horiz-adv-x="457" d="M320 148v404h81v148H56V552h81V148H48V0h361v148M281 753l101 126v15l-157 56-82-181v-16z"/><glyph unicode="ĭ" horiz-adv-x="457" d="M320 148v404h81v148H56V552h81V148H48V0h361v148M23 943c3-248 411-252 413 0H297c-4-69-130-69-134 0z"/><glyph unicode="î" horiz-adv-x="457" d="M320 148v404h81v148H56V552h81V148H48V0h361v148m41 610v15L312 925H148L10 773v-15h158l62 69 63-69z"/><glyph unicode="ï" horiz-adv-x="457" d="M320 148v404h81v148H56V552h81V148H48V0h361v148m-42 605c52 0 93 33 93 85s-41 86-93 86c-53 0-94-34-94-86s41-85 94-85m-272 0c52 0 94 33 94 85s-42 86-94 86-94-34-94-86 42-85 94-85z"/><glyph unicode="ì" horiz-adv-x="457" d="M320 148v404h81v148H56V552h81V148H48V0h361v148m-97 603v16l-82 181-157-56v-15l101-126z"/><glyph unicode="ĳ" horiz-adv-x="1084" d="M320 148v404h81v148H56V552h81V148H48V0h361v148m606 552H729V543h103V234c0-56-36-82-88-82-53 0-94 26-94 82v88H480v-91C480 78 599-10 745-10c144 0 270 88 270 241z"/><glyph unicode="ī" horiz-adv-x="457" d="M320 148v404h81v148H56V552h81V148H48V0h361v148M63 767h332v135H63z"/><glyph unicode="į" horiz-adv-x="457" d="M320 148v404h81v148H56V552h81V148H48V0h134c-43-36-69-83-53-143 32-132 201-113 280-57L385-94c-29-21-105-58-129-10-19 35 3 80 40 104h113v148z"/><glyph unicode="ĩ" horiz-adv-x="457" d="M320 148v404h81v148H56V552h81V148H48V0h361v148M120 771c21 53 76 21 111 5 87-42 172 11 196 112l-91 43c-16-52-63-23-94-10-101 47-174 3-213-106 29-13 63-31 91-44z"/><glyph unicode="j" horiz-adv-x="627" d="M558 700H272V543h103V234c0-56-36-82-88-82-53 0-94 26-94 82v88H23v-91C23 78 142-10 288-10c144 0 270 88 270 241z"/><glyph unicode="ĵ" horiz-adv-x="627" d="M558 700H272V543h103V234c0-56-36-82-88-82-53 0-94 26-94 82v88H23v-91C23 78 142-10 288-10c144 0 270 88 270 241m57 527v16L479 932H318L182 774v-16h156l61 72 62-72z"/><glyph unicode="k" horiz-adv-x="723" d="M498 0h207v27c-68 104-133 209-200 313 39 43 63 102 86 186 11 43 41 53 85 50v123c-164 34-232-35-253-120-20-84-31-126-63-142-25-13-73-11-102-11v274H75V0h183v267c25 0 66 0 87 3z"/><glyph unicode="ķ" horiz-adv-x="723" d="M470-124c0 51-39 82-88 82s-88-31-88-82c0-40 27-68 63-79l-25-75h89l43 123c4 11 6 18 6 31M498 0h207v27c-68 104-133 209-200 313 39 43 63 102 86 186 11 43 41 53 85 50v123c-164 34-232-35-253-120-20-84-31-126-63-142-25-13-73-11-102-11v274H75V0h183v267c25 0 66 0 87 3z"/><glyph unicode="ĸ" horiz-adv-x="723" d="M498 0h207v27c-68 104-133 209-200 313 39 43 63 102 86 186 11 43 41 53 85 50v123c-164 34-232-35-253-120-20-84-31-126-63-142-25-13-73-11-102-11v274H75V0h183v267c25 0 66 0 87 3z"/><glyph unicode="l" horiz-adv-x="528" d="M258 700H75V0h436v164H258z"/><glyph unicode="ĺ" horiz-adv-x="528" d="M258 700H75V0h436v164H258m-33 588l101 126v15l-157 56-82-181v-16z"/><glyph unicode="ľ" horiz-adv-x="538" d="M258 700H75V0h436v164H258m258 451c0 53-41 88-93 88-55 0-95-35-95-88 0-44 28-75 67-84l-25-87h95l44 137c5 12 7 19 7 34z"/><glyph unicode="ļ" horiz-adv-x="528" d="M384-124c0 51-39 82-88 82s-88-31-88-82c0-40 27-68 63-79l-25-75h89l43 123c4 11 6 18 6 31M258 700H75V0h436v164H258z"/><glyph unicode="ŀ" horiz-adv-x="531" d="M258 700H75V0h436v164H258m154 123c52 0 92 36 92 92s-40 92-92 92c-51 0-92-36-92-92s41-92 92-92z"/><glyph unicode="&lt;" horiz-adv-x="562" d="M40 281L487 95v149l-251 99 251 100v149L40 406z"/><glyph unicode="¬" horiz-adv-x="586" d="M60 260h320V116h136v290H60z"/><glyph unicode="ſ" horiz-adv-x="447" d="M107 0h171v529c0 91 79 79 139 61l16 126c-165 42-323 26-323-183v-51H25V362h82z"/><glyph unicode="ł" horiz-adv-x="536" d="M266 700H83V388l-65-17V225l65 17V0h436v164H266v128l94 26v146l-94-26z"/><glyph unicode="m" horiz-adv-x="835" d="M418 399L140 702H75V0h183v323l149-156h21l149 156V0h183v702h-65z"/><glyph unicode="¯" horiz-adv-x="499" d="M83 564h332v135H83z"/><glyph unicode="−" horiz-adv-x="561" d="M65 280h431v146H65z"/><glyph unicode="µ" horiz-adv-x="592" d="M542 0v483H379V209c0-55-41-85-81-85-36 0-68 24-69 75v284H66v-733h163V41c19-31 37-44 74-44 39 0 68 27 76 66V0z"/><glyph unicode="×" horiz-adv-x="530" d="M69 440l93-93-92-92 103-102 92 91 92-92 103 102-93 93 92 92-102 102-92-91-94 93z"/><glyph unicode="n" horiz-adv-x="755" d="M626-2h54v702H497V358L132 703H75V0h183v361z"/><glyph unicode="ń" horiz-adv-x="755" d="M626-2h54v702H497V358L132 703H75V0h183v361m149 385l101 126v15l-157 56-82-181v-16z"/><glyph unicode="ŉ" horiz-adv-x="755" d="M626-2h54v702H497V358L132 703H75V0h183v361z"/><glyph unicode="ň" horiz-adv-x="755" d="M626-2h54v702H497V358L132 703H75V0h183v361M134 919v-16l144-156h171l145 156v16H428l-64-71-66 71z"/><glyph unicode="ņ" horiz-adv-x="755" d="M513-124c0 51-39 82-88 82s-88-31-88-82c0-40 27-68 63-79l-25-75h89l43 123c4 11 6 18 6 31M626-2h54v702H497V358L132 703H75V0h183v361z"/><glyph unicode="9" horiz-adv-x="616" d="M334 0l192 319c31 51 49 99 49 159 0 164-116 240-268 240-154 0-269-76-269-240 0-149 94-231 242-226 5 0 10 1 13 1L136 0m171 564c60 0 88-30 88-86 0-59-29-88-88-88s-89 29-89 88c0 56 29 86 89 86z"/><glyph unicode="ñ" horiz-adv-x="755" d="M626-2h54v702H497V358L132 703H75V0h183v361m-2 395c21 53 76 21 111 5 87-42 172 11 196 112l-91 43c-16-52-63-23-94-10-101 47-174 3-213-106 29-13 63-31 91-44z"/><glyph unicode="#" horiz-adv-x="726" d="M42 169h90L106 0h158l23 169h114L375 0h157l24 169h92v118h-75l15 103h93v119h-76l27 190H482l-29-190H336l27 190H213l-29-190H74V390h92l-16-103H42m272 108h126l-17-112H298z"/><glyph unicode="o" horiz-adv-x="794" d="M756 350c0 242-178 364-357 364-182 0-361-122-361-364C38 107 211-13 396-13c212 0 360 149 360 363m-535 0c0 128 87 190 178 190 87 0 174-65 174-190s-89-190-176-190c-90 0-176 65-176 190z"/><glyph unicode="ó" horiz-adv-x="794" d="M756 350c0 242-178 364-357 364-182 0-361-122-361-364C38 107 211-13 396-13c212 0 360 149 360 363m-535 0c0 128 87 190 178 190 87 0 174-65 174-190s-89-190-176-190c-90 0-176 65-176 190m230 414l101 126v15l-157 56-82-181v-16z"/><glyph unicode="ŏ" horiz-adv-x="794" d="M756 350c0 242-178 364-357 364-182 0-361-122-361-364C38 107 211-13 396-13c212 0 360 149 360 363m-535 0c0 128 87 190 178 190 87 0 174-65 174-190s-89-190-176-190c-90 0-176 65-176 190m-45 605c5-250 437-255 437 0H466c-4-71-137-70-141 0z"/><glyph unicode="ô" horiz-adv-x="794" d="M756 350c0 242-178 364-357 364-182 0-361-122-361-364C38 107 211-13 396-13c212 0 360 149 360 363m-535 0c0 128 87 190 178 190 87 0 174-65 174-190s-89-190-176-190c-90 0-176 65-176 190m405 413v16L482 935H311L166 779v-16h166l64 71 66-71z"/><glyph unicode="ö" horiz-adv-x="794" d="M756 350c0 242-178 364-357 364-182 0-361-122-361-364C38 107 211-13 396-13c212 0 360 149 360 363m-535 0c0 128 87 190 178 190 87 0 174-65 174-190s-89-190-176-190c-90 0-176 65-176 190m312 411c52 0 93 33 93 85s-41 86-93 86c-53 0-94-34-94-86s41-85 94-85m-272 0c52 0 94 33 94 85s-42 86-94 86-94-34-94-86 42-85 94-85z"/><glyph unicode="œ" horiz-adv-x="922" d="M872 0v158H617v130h225v151H617v100h246v159H488c-31 8-62 11-93 11-185 3-356-119-356-361C39 109 201-11 385-11c33 0 66 3 99 11M216 348c0 113 79 202 183 202 21-1 41-4 64-12V151c-21-8-42-11-62-11-107 0-185 95-185 208z"/><glyph unicode="˛" horiz-adv-x="364" d="M117 10C68-27 35-78 52-143c32-132 199-113 279-57L307-94c-29-21-105-58-129-10-21 40 13 93 58 114z"/><glyph unicode="ò" horiz-adv-x="794" d="M756 350c0 242-178 364-357 364-182 0-361-122-361-364C38 107 211-13 396-13c212 0 360 149 360 363m-535 0c0 128 87 190 178 190 87 0 174-65 174-190s-89-190-176-190c-90 0-176 65-176 190m254 413v16l-82 181-157-56v-15l101-126z"/><glyph unicode="ő" horiz-adv-x="794" d="M340 766l85 151v14l-152 33-66-183v-15m363 0l85 129v15l-151 40-66-169v-15m318-416c0 242-178 364-357 364-182 0-361-122-361-364C38 107 211-13 396-13c212 0 360 149 360 363m-535 0c0 128 87 190 178 190 87 0 174-65 174-190s-89-190-176-190c-90 0-176 65-176 190z"/><glyph unicode="ō" horiz-adv-x="794" d="M756 350c0 242-178 364-357 364-182 0-361-122-361-364C38 107 211-13 396-13c212 0 360 149 360 363m-535 0c0 128 87 190 178 190 87 0 174-65 174-190s-89-190-176-190c-90 0-176 65-176 190m14 422h332v135H235z"/><glyph unicode="1" horiz-adv-x="476" d="M159 557V140H50V0h396v140H334v560H64V557z"/><glyph unicode="½" horiz-adv-x="1006" d="M258 1h150l338 699H596M45 266h266v102h-70v339H54V605h60V368H45m923-256H845l78 103c66 90 41 232-109 232-92 0-152-56-149-149h106c0 23 14 38 33 38 41 0 53-40 17-89L660 27V-1h308z"/><glyph unicode="¼" horiz-adv-x="1002" d="M815 178h-62l68 120h1l-7-61M926 77h39v106h-39v257H786L609 134V77h197V-1h120M259 1h150l338 699H597M46 266h266v102h-70v339H55V605h60V368H46z"/><glyph unicode="¹" horiz-adv-x="366" d="M56 300h266v102h-70v339H65V639h60V402H56z"/><glyph unicode="ª" horiz-adv-x="501" d="M299 400c1-1 1-5 1-6 3-64 90-52 132-42v67c-29 0-29 15-29 40v110c0 104-90 138-182 138-47 0-93-10-130-27l15-85c29 15 61 18 94 18 27 0 75-6 75-41v-6c-23 13-53 20-78 20-80 0-154-47-143-133 11-79 66-107 133-107 42 0 96 14 112 54M83 182h339v106H83m191 194c0-29-36-43-60-43-21 0-32 9-33 27-3 17 10 35 38 38 19 1 40-4 55-15z"/><glyph unicode="º" horiz-adv-x="544" d="M484 533c0 263-430 263-430 0s430-263 430 0m-287 1c0 103 147 103 147 0 0-104-147-104-147 0M58 141h431v143H58z"/><glyph unicode="ø" horiz-adv-x="791" d="M728 743v17H557l-39-67c-40 15-80 19-121 19-180 0-359-119-359-362 0-120 43-210 111-270L74-45v-19c56-1 114 0 170 0l41 68c35-11 73-16 110-16 180 0 358 119 358 362 0 117-40 204-103 264M545 455c15-27 25-62 25-105 0-124-88-189-173-189-11 0-18 1-27 2m-117 73c-20 31-32 67-32 114 0 125 88 189 175 189 13 0 25-1 37-3z"/><glyph unicode="ǿ" horiz-adv-x="791" d="M650 614l78 129v17H557l-39-67c-40 15-80 19-121 19-180 0-359-119-359-362 0-120 43-210 111-270L74-45v-19c56-1 114 0 170 0l41 68c35-11 73-16 110-16 180 0 358 119 358 362 0 117-40 204-103 264M370 163l175 292c15-27 25-62 25-105 0-124-88-189-173-189-11 0-18 1-27 2m63 373L253 236c-20 31-32 67-32 114 0 125 88 189 175 189 13 0 25-1 37-3m23 235l101 126v15l-157 56-82-181v-16z"/><glyph unicode="õ" horiz-adv-x="794" d="M756 350c0 242-178 364-357 364-182 0-361-122-361-364C38 107 211-13 396-13c212 0 360 149 360 363m-535 0c0 128 87 190 178 190 87 0 174-65 174-190s-89-190-176-190c-90 0-176 65-176 190m67 427c21 53 76 21 111 5 87-42 172 11 196 112l-91 43c-16-52-63-23-94-10-101 47-174 3-213-106 29-13 63-31 91-44z"/><glyph unicode="p" horiz-adv-x="658" d="M259 1v181h126c166 0 251 128 251 256 3 132-83 263-251 263-104 1-205 0-309 0V1m180 340v201h129c50 0 76-49 76-99 0-51-28-102-76-102z"/><glyph unicode="¶" horiz-adv-x="816" d="M732-225v924H285c-343 0-326-513-16-521v-403h170v769h123v-769z"/><glyph unicode="(" horiz-adv-x="378" d="M310 801C-57 663-63-99 310-237l53 103c-206 92-202 737 0 833z"/><glyph unicode=")" horiz-adv-x="378" d="M15 699c202-96 206-741 0-833l53-103C441-99 435 663 68 801z"/><glyph unicode="%" horiz-adv-x="963" d="M227 0h164l345 699H571m358-534c0 247-372 247-372 0s372-247 372 0m-238 0c0 89 103 89 103 0 0-91-103-91-103 0M407 532c0 247-373 247-373 0s373-247 373 0m-237 0c0 90 102 90 102 0 0-89-102-89-102 0z"/><glyph unicode="." horiz-adv-x="294" d="M147-18c56 0 99 35 99 91s-43 92-99 92c-55 0-99-36-99-92s44-91 99-91z"/><glyph unicode="·" horiz-adv-x="296" d="M148 268c56 0 99 35 99 91s-43 92-99 92c-55 0-99-36-99-92s44-91 99-91z"/><glyph unicode="‰" horiz-adv-x="1372" d="M227 0h164l345 699H571m358-534c0 247-372 247-372 0s372-247 372 0m-238 0c0 89 103 89 103 0 0-91-103-91-103 0M407 532c0 247-373 247-373 0s373-247 373 0m-237 0c0 90 102 90 102 0 0-89-102-89-102 0m1169-367c0 247-372 247-372 0s372-247 372 0m-238 0c0 89 103 89 103 0 0-91-103-91-103 0z"/><glyph unicode="+" horiz-adv-x="510" d="M61 293h126V174h135v119h128v145H322v119H187V438H61z"/><glyph unicode="±" horiz-adv-x="529" d="M71 295h126v-95h135v95h128v139H332v123H197V434H71M67 2h393v146H67z"/><glyph unicode="q" horiz-adv-x="795" d="M774 19l-73 125c35 55 54 123 54 206 0 242-179 364-358 364-214 0-359-145-359-364C38 125 206-7 389-10c65-1 132 15 193 48l27-46h165M221 350c0 125 86 190 175 190 88 0 176-62 176-190 0-127-88-190-175-190-90 0-176 65-176 190z"/><glyph unicode="?" horiz-adv-x="538" d="M352 194c-8 119 140 153 140 301 0 117-90 214-236 211-124-3-225-78-222-227h150c0 47 33 67 68 68 33 0 69-18 68-55-8-115-161-141-145-298m89-209c56 0 97 36 97 91 0 56-41 92-97 92s-100-36-100-92c0-55 44-91 100-91z"/><glyph unicode="¿" horiz-adv-x="526" d="M178 277C186 159 38 129 38-19c0-117 90-214 236-211 124 3 225 78 222 227H346c0-47-33-67-68-68-32 0-71 18-68 55 8 116 161 136 145 293m-89 214c-56 0-97-36-97-91 0-56 41-92 97-92s100 36 100 92c0 55-44 91-100 91z"/><glyph unicode="&quot;" horiz-adv-x="432" d="M64 700V446h114l21 254m46 0V446h114l21 254z"/><glyph unicode="„" horiz-adv-x="541" d="M245 73c0 56-43 92-98 92-56 0-99-36-99-92 0-45 30-77 70-88l-26-91h99l47 144c5 12 7 20 7 35m247 0c0 56-43 92-98 92-56 0-99-36-99-92 0-45 30-77 70-88l-26-91h99l47 144c5 12 7 20 7 35z"/><glyph unicode="“" horiz-adv-x="529" d="M43 525c0-56 43-92 98-92 56 0 99 36 99 92 0 45-30 77-70 88l26 91H97L50 560c-5-12-7-20-7-35m248 0c0-56 43-92 98-92 56 0 99 36 99 92 0 45-30 77-70 88l26 91h-99l-47-144c-5-12-7-20-7-35z"/><glyph unicode="”" horiz-adv-x="534" d="M240 617c0 56-43 92-98 92-56 0-99-36-99-92 0-45 30-77 70-88l-26-91h99l47 144c5 12 7 20 7 35m252 0c0 56-43 92-98 92-56 0-99-36-99-92 0-45 30-77 70-88l-26-91h99l47 144c5 12 7 20 7 35z"/><glyph unicode="‘" horiz-adv-x="281" d="M43 525c0-56 43-92 98-92 56 0 99 36 99 92 0 45-30 77-70 88l26 91H97L50 560c-5-12-7-20-7-35z"/><glyph unicode="’" horiz-adv-x="282" d="M240 617c0 56-43 92-98 92-56 0-99-36-99-92 0-45 30-77 70-88l-26-91h99l47 144c5 12 7 20 7 35z"/><glyph unicode="‚" horiz-adv-x="294" d="M245 73c0 56-43 92-98 92-56 0-99-36-99-92 0-45 30-77 70-88l-26-91h99l47 144c5 12 7 20 7 35z"/><glyph unicode="'" horiz-adv-x="251" d="M64 700V446h114l21 254z"/><glyph unicode="r" horiz-adv-x="696" d="M532 249c69 47 103 124 104 204 0 123-83 248-252 248-103 1-204 0-308 0V1h183v219h96L475 1h194v26M256 369v173h127c52 0 76-41 76-85s-25-88-76-88z"/><glyph unicode="ŕ" horiz-adv-x="696" d="M532 249c69 47 103 124 104 204 0 123-83 248-252 248-103 1-204 0-308 0V1h183v219h96L475 1h194v26M256 369v173h127c52 0 76-41 76-85s-25-88-76-88m-8 387l101 126v15l-157 56-82-181v-16z"/><glyph unicode="ř" horiz-adv-x="696" d="M532 249c69 47 103 124 104 204 0 123-83 248-252 248-103 1-204 0-308 0V1h183v219h96L475 1h194v26M256 369v173h127c52 0 76-41 76-85s-25-88-76-88M99 934v-16l144-156h171l145 156v16H393l-64-71-66 71z"/><glyph unicode="ŗ" horiz-adv-x="695" d="M445-124c0 51-39 82-88 82s-88-31-88-82c0-40 27-68 63-79l-25-75h89l43 123c4 11 6 18 6 31m86 373c69 47 103 124 104 204 0 123-83 248-252 248-103 1-204 0-308 0V1h183v219h96L474 1h194v26M255 369v173h127c52 0 76-41 76-85s-25-88-76-88z"/><glyph unicode="®" horiz-adv-x="785" d="M739 350c0 464-693 464-693 0 0-465 693-465 693 0m-251-43c39 15 53 53 53 92 0 76-52 115-124 115H268V191h99v101h26l55-101h101v18M367 429h40c24 0 35-14 35-29s-12-29-35-29h-40m-198-21c0 324 448 324 448 0 0-323-448-323-448 0z"/><glyph unicode="˚" horiz-adv-x="379" d="M321 610c0 165-268 165-268 0 0-166 268-167 268 0m-176 0c0 51 85 51 85 0s-85-51-85 0z"/><glyph unicode="s" horiz-adv-x="649" d="M40 215C37 58 179-16 327-16c143 0 286 77 286 224 0 170-130 205-279 218-67 7-107 18-107 65 0 53 54 64 95 64 49 0 94-20 95-68h171c3 152-134 229-269 229-143 0-272-77-272-229 0-146 128-197 256-205 51-3 129-6 129-73 0-42-55-66-107-66-56 0-111 24-111 72z"/><glyph unicode="ś" horiz-adv-x="649" d="M40 215C37 58 179-16 327-16c143 0 286 77 286 224 0 170-130 205-279 218-67 7-107 18-107 65 0 53 54 64 95 64 49 0 94-20 95-68h171c3 152-134 229-269 229-143 0-272-77-272-229 0-146 128-197 256-205 51-3 129-6 129-73 0-42-55-66-107-66-56 0-111 24-111 72m162 552l101 126v15l-157 56-82-181v-16z"/><glyph unicode="š" horiz-adv-x="649" d="M40 215C37 58 179-16 327-16c143 0 286 77 286 224 0 170-130 205-279 218-67 7-107 18-107 65 0 53 54 64 95 64 49 0 94-20 95-68h171c3 152-134 229-269 229-143 0-272-77-272-229 0-146 128-197 256-205 51-3 129-6 129-73 0-42-55-66-107-66-56 0-111 24-111 72M113 920v-15l130-140h155l132 140v15H379l-58-64-60 64z"/><glyph unicode="ş" horiz-adv-x="651" d="M41 215C38 77 150 0 277-13l-21-79c24 0 69-11 61-40-8-27-75-19-100-2l-10-92c77-45 222-50 251 44 16 52 2 107-67 118l14 56c112 24 209 94 209 216 0 170-130 205-279 218-67 7-107 18-107 65 0 53 54 64 95 64 49 0 94-20 95-68h171c3 152-134 229-269 229-143 0-272-77-272-229 0-146 128-197 256-205 51-3 129-6 129-73 0-42-55-66-107-66-56 0-111 24-111 72z"/><glyph unicode="ŝ" horiz-adv-x="649" d="M40 215C37 58 179-16 327-16c143 0 286 77 286 224 0 170-130 205-279 218-67 7-107 18-107 65 0 53 54 64 95 64 49 0 94-20 95-68h171c3 152-134 229-269 229-143 0-272-77-272-229 0-146 128-197 256-205 51-3 129-6 129-73 0-42-55-66-107-66-56 0-111 24-111 72m347 551v16L417 938H246L101 782v-16h166l64 71 66-71z"/><glyph unicode="ș" horiz-adv-x="649" d="M414-129c0 106-176 106-176 0 0-40 27-64 63-75l-25-75h89l39 108c8 23 10 29 10 42M40 215C37 58 179-16 327-16c143 0 286 77 286 224 0 170-130 205-279 218-67 7-107 18-107 65 0 53 54 64 95 64 49 0 94-20 95-68h171c3 152-134 229-269 229-143 0-272-77-272-229 0-146 128-197 256-205 51-3 129-6 129-73 0-42-55-66-107-66-56 0-111 24-111 72z"/><glyph unicode="§" horiz-adv-x="649" d="M404 218c-23 4-48 6-72 7-75 7-113 27-114 70 0 20 11 42 38 59 15-3 30-4 46-5 101-7 139-33 139-69 0-27-14-47-37-62M123 399c-44-32-66-73-66-122 0-125 122-165 245-173 49-3 124-5 124-64 0-34-52-55-102-55-53 0-108 19-108 61H50C47-86 183-150 326-150c138 0 274 65 274 190 0 60-20 100-55 127 35 31 55 70 55 119 0 146-124 175-268 186-64 5-103 15-103 54 0 46 53 55 92 55 47 0 91-18 91-58h164c3 129-128 194-259 194-136 0-260-63-260-194 0-56 26-97 66-124z"/><glyph unicode=";" horiz-adv-x="320" d="M160 282c56 0 99 35 99 91s-43 92-99 92c-55 0-99-36-99-92s44-91 99-91m98-209c0 56-43 92-98 92-56 0-99-36-99-92 0-45 30-77 70-88l-26-91h99l47 144c5 12 7 20 7 35z"/><glyph unicode="7" horiz-adv-x="552" d="M549 700H34V540h271L80 0h183l286 674z"/><glyph unicode="6" horiz-adv-x="617" d="M281 706L87 382c-25-43-46-103-46-154C41 64 157-12 309-12c154 0 269 76 269 240 0 146-94 234-237 226-5 0-8 0-10-1l149 253M309 142c-60 0-89 30-89 86 0 59 30 88 89 88s88-29 88-88c0-56-28-86-88-86z"/><glyph unicode="/" horiz-adv-x="565" d="M26 1h175l338 699H364z"/><glyph horiz-adv-x="239"/><glyph unicode="£" horiz-adv-x="677" d="M608 665c-56 28-131 42-191 42-170 0-316-92-308-300H45v-91h76c7-41 13-80 13-119 0-65-19-126-84-183V-1h175c52 42 186-7 254-7C618-8 657 95 633 222H491c8-68-13-84-48-83-49 0-123 31-176-1 15 20 21 41 28 62 11 37 9 77 2 116h192v91H285c-3 104 57 144 141 147 36 0 92-8 129-26z"/><glyph unicode="t" horiz-adv-x="558" d="M191 540V0h177v540h171v160H19V540z"/><glyph unicode="ŧ" horiz-adv-x="558" d="M107 247h84V0h177v247h79v135h-79v158h171v160H19V540h172V382h-84z"/><glyph unicode="ť" horiz-adv-x="558" d="M191 540V0h177v540h171v160H19V540m31 383v-16l144-156h171l145 156v16H344l-64-71-66 71z"/><glyph unicode="ţ" horiz-adv-x="558" d="M191 540V0h22l-21-80c24 0 69-11 61-40-8-27-75-19-100-2l-10-92c77-45 222-50 251 44 16 52 2 107-67 118l13 52h28v540h171v160H19V540z"/><glyph unicode="þ" horiz-adv-x="673" d="M255 256v201h129c50 0 76-49 76-99 0-51-28-102-76-102M75 0h183v97h126c166 0 251 128 251 256 3 132-83 263-251 263H258v84H75z"/><glyph unicode="3" horiz-adv-x="578" d="M41 213C44 74 146-13 282-13c162 0 247 123 247 242 0 91-33 180-143 209l128 236v26H68V552h215L179 346v-23c81 8 175 12 178-95-1-47-29-84-78-84-47 0-78 24-78 69H41z"/><glyph unicode="¾" horiz-adv-x="1027" d="M839 178h-62l68 120h1l-7-61M950 77h39v106h-39v257H810L633 134V77h197V-1h120M283 1h150l338 699H621M36 403c0-90 70-147 160-147 110 0 164 82 164 154 0 54-15 108-87 132l75 145v18H54v-98h140l-57-132v-15c50 0 98 13 98-51 0-19-14-43-41-43s-46 14-45 37z"/><glyph unicode="³" horiz-adv-x="403" d="M40 439c0-90 70-147 160-147 110 0 164 82 164 154 0 54-15 108-87 132l75 145v18H58v-98h140l-57-132v-15c50 0 98 13 98-51 0-19-14-43-41-43s-46 14-45 37H40z"/><glyph unicode="˜" horiz-adv-x="503" d="M130 553c21 53 76 21 111 5 87-42 172 11 196 112l-91 43c-16-52-63-23-94-10-101 47-174 3-213-106 29-13 63-31 91-44z"/><glyph unicode="™" horiz-adv-x="763" d="M142 601V422h112v179h73v100H68V601m351 100h-55V422h112v88l48-45h5l48 45v-88h112v279h-55L527 597z"/><glyph unicode="2" horiz-adv-x="568" d="M266 550c81-3 65-86 17-158L40 39V0h484v162H302c134 184 136 190 136 192 115 169 23 357-166 357-140 0-227-84-224-228h151c0 47 34 68 67 67z"/><glyph unicode="²" horiz-adv-x="419" d="M362 413H239l78 103c66 90 41 232-109 232-92 0-152-56-149-149h106c0 23 14 38 33 38 41 0 53-40 17-89L54 328v-28h308z"/><glyph unicode="u" horiz-adv-x="706" d="M354-9c147 0 283 83 283 240v469H456V235c0-58-52-83-101-83-52 0-103 25-103 83v465H69V231C69 74 206-9 354-9z"/><glyph unicode="ú" horiz-adv-x="706" d="M354-9c147 0 283 83 283 240v469H456V235c0-58-52-83-101-83-52 0-103 25-103 83v465H69V231C69 74 206-9 354-9m62 756l101 126v15l-157 56-82-181v-16z"/><glyph unicode="ŭ" horiz-adv-x="706" d="M354-9c147 0 283 83 283 240v469H456V235c0-58-52-83-101-83-52 0-103 25-103 83v465H69V231C69 74 206-9 354-9M134 935c5-250 437-255 437 0H424c-4-71-137-70-141 0z"/><glyph unicode="û" horiz-adv-x="706" d="M354-9c147 0 283 83 283 240v469H456V235c0-58-52-83-101-83-52 0-103 25-103 83v465H69V231C69 74 206-9 354-9m222 775v16L432 938H261L116 782v-16h166l64 71 66-71z"/><glyph unicode="ü" horiz-adv-x="706" d="M354-9c147 0 283 83 283 240v469H456V235c0-58-52-83-101-83-52 0-103 25-103 83v465H69V231C69 74 206-9 354-9m144 775c52 0 93 33 93 85s-41 86-93 86c-53 0-94-34-94-86s41-85 94-85m-272 0c52 0 94 33 94 85s-42 86-94 86-94-34-94-86 42-85 94-85z"/><glyph unicode="ù" horiz-adv-x="706" d="M354-9c147 0 283 83 283 240v469H456V235c0-58-52-83-101-83-52 0-103 25-103 83v465H69V231C69 74 206-9 354-9m77 759v16l-82 181-157-56v-15l101-126z"/><glyph unicode="ű" horiz-adv-x="706" d="M354-9c147 0 283 83 283 240v469H456V235c0-58-52-83-101-83-52 0-103 25-103 83v465H69V231C69 74 206-9 354-9m-60 770l85 151v14l-152 33-66-183v-15m363 0l85 129v15l-151 40-66-169v-15z"/><glyph unicode="ū" horiz-adv-x="706" d="M354-9c147 0 283 83 283 240v469H456V235c0-58-52-83-101-83-52 0-103 25-103 83v465H69V231C69 74 206-9 354-9M185 768h332v135H185z"/><glyph unicode="_" horiz-adv-x="620" d="M58-158h504v146H58z"/><glyph unicode="Ț" horiz-adv-x="558" d="M368-129c0 106-176 106-176 0 0-40 27-64 63-75l-25-75h89l39 108c8 23 10 29 10 42M191 540V0h177v540h171v160H19V540z"/><glyph unicode="ț" horiz-adv-x="558" d="M368-129c0 106-176 106-176 0 0-40 27-64 63-75l-25-75h89l39 108c8 23 10 29 10 42M191 540V0h177v540h171v160H19V540z"/><glyph unicode="↖" horiz-adv-x="735" d="M117 150l148-5-15 185L506 64l127 127-268 258 187-18-4 148-428 15-17-17z"/><glyph unicode="↗" horiz-adv-x="708" d="M595 577l-17 17-428-15-4-148 187 18L65 191 192 64l256 266-15-185 148 5z"/><glyph unicode="↘" horiz-adv-x="735" d="M591 551l-148 5 15-185-256 266L75 510l268-258-187 18 4-148 428-15 17 17z"/><glyph unicode="↙" horiz-adv-x="735" d="M130 124l17-17 428 15 4 148-187-18 268 258-127 127-256-266 15 185-148-5z"/><glyph unicode="ų" horiz-adv-x="707" d="M364-9c-23-33-32-72-21-115 30-129 204-99 282-46L601-64c-29-21-105-58-129-10-17 31-1 71 30 96 80 39 135 108 135 209v469H456V235c0-58-52-83-101-83-52 0-103 25-103 83v465H69V231C69 74 206-9 354-9z"/><glyph unicode="ů" horiz-adv-x="706" d="M354-9c147 0 283 83 283 240v469H456V235c0-58-52-83-101-83-52 0-103 25-103 83v465H69V231C69 74 206-9 354-9m132 866c0 165-268 165-268 0 0-166 268-167 268 0m-176 0c0 51 85 51 85 0s-85-51-85 0z"/><glyph unicode="ũ" horiz-adv-x="706" d="M354-9c147 0 283 83 283 240v469H456V235c0-58-52-83-101-83-52 0-103 25-103 83v465H69V231C69 74 206-9 354-9M244 771c21 53 76 21 111 5 87-42 172 11 196 112l-91 43c-16-52-63-23-94-10-101 47-174 3-213-106 29-13 63-31 91-44z"/><glyph unicode="v" horiz-adv-x="678" d="M339 309l-59 183-88 208H-3v-27L302-7h76l302 680v27H485l-86-208-57-183z"/><glyph unicode="w" horiz-adv-x="951" d="M438 688L320 305h-3l-53 204-66 191H6v-27L256-7h102l116 320h3L598-7h97l250 680v27H753l-65-191-49-204h-3L513 688z"/><glyph unicode="ẃ" horiz-adv-x="951" d="M438 688L320 305h-3l-53 204-66 191H6v-27L256-7h102l116 320h3L598-7h97l250 680v27H753l-65-191-49-204h-3L513 688m14 60l101 126v15l-157 56-82-181v-16z"/><glyph unicode="ŵ" horiz-adv-x="951" d="M438 688L320 305h-3l-53 204-66 191H6v-27L256-7h102l116 320h3L598-7h97l250 680v27H753l-65-191-49-204h-3L513 688m190 74v16L559 934H388L243 778v-16h166l64 71 66-71z"/><glyph unicode="ẅ" horiz-adv-x="951" d="M438 688L320 305h-3l-53 204-66 191H6v-27L256-7h102l116 320h3L598-7h97l250 680v27H753l-65-191-49-204h-3L513 688m99 73c52 0 93 33 93 85s-41 86-93 86c-53 0-94-34-94-86s41-85 94-85m-272 0c52 0 94 33 94 85s-42 86-94 86-94-34-94-86 42-85 94-85z"/><glyph unicode="ẁ" horiz-adv-x="951" d="M438 688L320 305h-3l-53 204-66 191H6v-27L256-7h102l116 320h3L598-7h97l250 680v27H753l-65-191-49-204h-3L513 688m35 67v16l-82 181-157-56v-15l101-126z"/><glyph unicode="x" horiz-adv-x="691" d="M344 509L231 700H33v-27l203-302L9 26V0h206l128 219h6L478 0h204v26L456 371l202 302v27H461L348 509z"/><glyph unicode="y" horiz-adv-x="641" d="M317 468L190 700H-6v-27l235-396V0h183v277l234 396v27H452L325 468z"/><glyph unicode="ý" horiz-adv-x="641" d="M317 468L190 700H-6v-27l235-396V0h183v277l234 396v27H452L325 468m42 286l101 126v15l-157 56-82-181v-16z"/><glyph unicode="ŷ" horiz-adv-x="641" d="M317 468L190 700H-6v-27l235-396V0h183v277l234 396v27H452L325 468m226 297v16L407 937H236L91 781v-16h166l64 71 66-71z"/><glyph unicode="ÿ" horiz-adv-x="641" d="M317 468L190 700H-6v-27l235-396V0h183v277l234 396v27H452L325 468m132 295c52 0 93 33 93 85s-41 86-93 86c-53 0-94-34-94-86s41-85 94-85m-272 0c52 0 94 33 94 85s-42 86-94 86-94-34-94-86 42-85 94-85z"/><glyph unicode="¥" horiz-adv-x="655" d="M419 0v118h128v85H419v53h128v84h-97l172 334v26H427l-96-232h-6l-97 232H33v-26l171-334h-96v-84h128v-53H108v-85h128V0z"/><glyph unicode="ỳ" horiz-adv-x="641" d="M317 468L190 700H-6v-27l235-396V0h183v277l234 396v27H452L325 468m69 280v16l-82 181-157-56v-15l101-126z"/><glyph unicode="z" horiz-adv-x="614" d="M574 700H49V541h257L24 26V0h553v163H293l281 510z"/><glyph unicode="ź" horiz-adv-x="614" d="M574 700H49V541h257L24 26V0h553v163H293l281 510m-207 89l101 126v15l-157 56-82-181v-16z"/><glyph unicode="ž" horiz-adv-x="614" d="M574 700H49V541h257L24 26V0h553v163H293l281 510M133 905v-14l122-133h146l123 133v14H383l-55-61-56 61z"/><glyph unicode="ż" horiz-adv-x="614" d="M574 700H49V541h257L24 26V0h553v163H293l281 510m-264 85c56 0 99 35 99 91s-43 92-99 92c-55 0-99-36-99-92s44-91 99-91z"/><glyph unicode="0" horiz-adv-x="648" d="M325 713c-145 0-263-89-263-241V226C62 73 180-15 325-15c144 0 261 88 261 241v246c0 152-117 241-261 241m0-568c-53 0-92 28-92 84v239c0 57 39 86 92 86 51 0 91-29 91-86V229c0-56-40-84-91-84z"/></font>
</svg>
